<?xml version="1.0" standalone="no"?>
<!DOCTYPE svg PUBLIC "-//W3C//DTD SVG 1.1//EN" "http://www.w3.org/Graphics/SVG/1.1/DTD/svg11.dtd" >
<svg>
<metadata>
Created by FontForge 20090914 at Sun Oct 18 18:51:02 2015
 By www-data
Copyright (c) 2010 by Ryoichi Tsunekawa. All rights reserved.
</metadata>
<defs>
<font id="BebasNeueBold" horiz-adv-x="811" >
  <font-face 
    font-family="Bebas Neue Bold"
    font-weight="700"
    font-stretch="normal"
    units-per-em="2048"
    panose-1="2 11 6 6 2 2 2 5 2 1"
    ascent="1536"
    descent="-512"
    x-height="1434"
    cap-height="1434"
    bbox="-27 -301 2048 1831"
    underline-thickness="102"
    underline-position="-123"
    unicode-range="U+000D-U+25FC"
  />
<missing-glyph horiz-adv-x="748" 
d="M68 0v1365h544v-1365h-544zM136 68h408v1229h-408v-1229z" />
    <glyph glyph-name=".notdef" horiz-adv-x="748" 
d="M68 0v1365h544v-1365h-544zM136 68h408v1229h-408v-1229z" />
    <glyph glyph-name="glyph1" horiz-adv-x="2048" 
 />
    <glyph glyph-name="glyph1" horiz-adv-x="2048" 
 />
    <glyph glyph-name="uni000D" unicode="&#xd;" horiz-adv-x="2048" 
 />
    <glyph glyph-name="space" unicode=" " horiz-adv-x="317" 
 />
    <glyph glyph-name="exclam" unicode="!" horiz-adv-x="389" 
d="M82 836v598h225v-598l-28 -519h-168zM86 0v217h217v-217h-217z" />
    <glyph glyph-name="quotedbl" unicode="&#x22;" horiz-adv-x="665" 
d="M82 1434h217l-33 -422h-153zM367 1434h217l-33 -422h-154z" />
    <glyph glyph-name="numbersign" unicode="#" horiz-adv-x="839" 
d="M31 410l16 159h100l39 375h-102l16 160h103l35 330h184l-35 -330h133l35 330h184l-34 -330h104l-16 -160h-105l-39 -375h105l-17 -159h-104l-43 -410h-184l43 410h-134l-43 -410h-184l43 410h-100zM332 569h133l39 375h-133z" />
    <glyph glyph-name="dollar" unicode="$" 
d="M70 365l-0.000976562 98.002h213v-113c0 -92.667 38.667 -139 116 -139c78 0 117 46.333 117 139c0 40 -8.16699 77 -24.5 111s-37.333 63.833 -63 89.5s-54.167 51.167 -85.5 76.5s-62.666 52.166 -93.999 80.499s-59.833 58.666 -85.5 90.999
s-46.667 71.666 -63 117.999s-24.5 97.166 -24.5 152.499c0 198 79 314.667 237 350v107h185v-107c79.333 -16.667 139.333 -54.667 180 -114s61 -138 61 -236v-45h-213v59c0 94.667 -37.333 142 -112 142c-75.333 0 -113 -47.333 -113 -142c0 -40 8.16699 -77 24.5 -111
s37.333 -63.833 63 -89.5s54.167 -51.167 85.5 -76.5s62.666 -52 93.999 -80s59.833 -58.167 85.5 -90.5s46.667 -71.666 63 -117.999s24.5 -97.166 24.5 -152.499c0 -98 -20.667 -177.167 -62 -237.5s-101.666 -98.833 -180.999 -115.5v-104h-185v104
c-80 16.667 -140.5 55 -181.5 115s-61.5 139.333 -61.5 238z" />
    <glyph glyph-name="percent" unicode="%" horiz-adv-x="1284" 
d="M70 743v471c0 74 18.667 130.833 56 170.5s91 59.5 161 59.5s123.667 -19.833 161 -59.5s56 -96.5 56 -170.5v-471c0 -74 -18.667 -130.667 -56 -170s-91 -59 -161 -59s-123.667 19.667 -161 59s-56 96 -56 170zM213 733c0 -60 24.667 -90 74 -90c48.667 0 73 30 73 90
v492c0 60 -24.333 90 -73 90c-49.333 0 -74 -30 -74 -90v-492zM287 0l565 1434h133l-565 -1434h-133zM780 219v471c0 74 18.667 130.833 56 170.5s91 59.5 161 59.5s123.667 -19.833 161 -59.5s56 -96.5 56 -170.5v-471c0 -74 -18.667 -130.667 -56 -170s-91 -59 -161 -59
s-123.667 19.667 -161 59s-56 96 -56 170zM924 209c0 -60 24.333 -90 73 -90c49.333 0 74 30 74 90v491c0 60.667 -24.667 91 -74 91c-48.667 0 -73 -30.333 -73 -91v-491z" />
    <glyph glyph-name="ampersand" unicode="&#x26;" horiz-adv-x="847" 
d="M84 311l0.000976562 145.999c0 154.667 52 255 156 301c-104 44 -156 142.333 -156 295v26c0 115.333 28.167 203.333 84.5 264s140.166 91 251.499 91h258v-205h-254c-37.333 0 -65.833 -10.833 -85.5 -32.5s-29.5 -57.167 -29.5 -106.5v-89
c0 -54.667 11.333 -93.5 34 -116.5s56.334 -34.5 101.001 -34.5h99v160h225v-160h59v-205h-59v-471c0 -77.333 8.33301 -135.333 25 -174h-230c-10.667 30.667 -17.334 68.334 -20.001 113.001c-40 -86 -109.667 -129 -209 -129c-82.667 0 -145 28 -187 84s-63 137 -63 243z
M309.001 329.999c0 -94.667 39 -142 117 -142c74 0 113 41.667 117 125v332h-86c-52 0 -89.667 -14 -113 -42s-35 -74.667 -35 -140v-133z" />
    <glyph glyph-name="quotesingle" unicode="'" horiz-adv-x="368" 
d="M76 1434h217l-33 -422h-154z" />
    <glyph glyph-name="parenleft" unicode="(" horiz-adv-x="514" 
d="M96 313v806.998c0 114 24.333 194.833 73 242.5s129.667 71.5 243 71.5h69v-185h-55c-37.333 0 -64 -9.16699 -80 -27.5s-24 -52.166 -24 -101.499v-807c0 -49.333 8 -83.166 24 -101.499s42.667 -27.5 80 -27.5h55v-184h-69c-113.333 0 -194.333 23.667 -243 71
s-73 128 -73 242z" />
    <glyph glyph-name="parenright" unicode=")" horiz-adv-x="514" 
d="M33 0v184.002h55c37.333 0 64.166 9.16699 80.499 27.5s24.5 52.166 24.5 101.499v807c0 49.333 -8.16699 83.166 -24.5 101.499s-43.166 27.5 -80.499 27.5h-55v185h69c113.333 0 194.333 -23.833 243 -71.5s73 -128.5 73 -242.5v-807c0 -114 -24.333 -194.667 -73 -242
s-129.667 -71 -243 -71h-69z" />
    <glyph glyph-name="asterisk" unicode="*" 
d="M4 1075l57 174l306 -153l-54 338h185l-54 -338l306 153l57 -174l-336 -57l240 -240l-148 -108l-157 303l-158 -303l-148 108l240 240z" />
    <glyph glyph-name="plus" unicode="+" 
d="M51 637v160h275v276h159v-276h275v-160h-275v-281h-159v281h-275z" />
    <glyph glyph-name="comma" unicode="," horiz-adv-x="380" 
d="M82 0v217h217v-194l-98 -228h-92l59 205h-86z" />
    <glyph glyph-name="hyphen" unicode="-" horiz-adv-x="552" 
d="M72 614v205h409v-205h-409z" />
    <glyph glyph-name="period" unicode="." horiz-adv-x="380" 
d="M82 0v217h217v-217h-217z" />
    <glyph glyph-name="slash" unicode="/" horiz-adv-x="780" 
d="M10 0l565 1434h195l-565 -1434h-195z" />
    <glyph glyph-name="zero" unicode="0" 
d="M63 344v746c0 114.667 29.667 203.334 89 266.001s144 94 254 94s194.5 -31.333 253.5 -94s88.5 -151.334 88.5 -266.001v-746c0 -114.667 -29.5 -203.334 -88.5 -266.001s-143.5 -94 -253.5 -94s-194.667 31.333 -254 94s-89 151.334 -89 266.001zM289 330
c0 -94.667 39 -142 117 -142c77.333 0 116 47.333 116 142v774c0 94 -38.667 141 -116 141c-78 0 -117 -47 -117 -141v-774z" />
    <glyph glyph-name="one" unicode="1" 
d="M221 1094l-0.000976562 159c33.333 0 63 3.5 89 10.5s47 15.333 63 25s30.5 23.334 43.5 41.001s22.833 33.667 29.5 48s14.334 33.166 23.001 56.499h152v-1434h-226v1094h-174z" />
    <glyph glyph-name="two" unicode="2" 
d="M82 0l0.00390625 175.995c0 56.667 8.16699 110.167 24.5 160.5s37.666 94.333 63.999 132s55.333 74.334 87 110.001l95 106.5c31.667 35.333 60.667 71.666 87 108.999s47.666 80.5 63.999 129.5s24.5 101.5 24.5 157.5c0 61.333 -9.66699 104 -29 128
s-48.333 36 -87 36c-78 0 -117 -47 -117 -141v-154h-213v140c0 115.333 28.667 204.166 86 266.499s140.666 93.5 249.999 93.5s192.666 -31.167 249.999 -93.5s86 -151.166 86 -266.499c0 -61.333 -8.33301 -120.166 -25 -176.499s-38.167 -106.166 -64.5 -149.499
s-55.333 -84.833 -87 -124.5s-63.5 -76.667 -95.5 -111s-61.167 -67.166 -87.5 -98.499s-47.833 -63.666 -64.5 -96.999s-25 -65.666 -25 -96.999c0 -14 0.666992 -24.333 2 -31h426v-205h-651z" />
    <glyph glyph-name="three" unicode="3" 
d="M70 344l-0.000976562 118.998h213v-133c0 -94.667 38.667 -142 116 -142c38.667 0 67.834 12 87.501 36s29.5 66 29.5 126v113c0 65.333 -11.5 112 -34.5 140s-60.5 42 -112.5 42h-76v205h88c44.667 0 78.334 11.5 101.001 34.5s34 61.833 34 116.5v80
c0 61.333 -9.83301 104 -29.5 128s-48.834 36 -87.501 36c-77.333 0 -116 -47 -116 -141v-92h-213v78c0 115.333 28.667 204.166 86 266.499s140.666 93.5 249.999 93.5s192.5 -31.167 249.5 -93.5s85.5 -151.166 85.5 -266.499v-37
c0 -153.333 -52.333 -251.666 -157 -294.999c104.667 -45.333 157 -145.666 157 -300.999v-113c0 -115.333 -28.5 -204.166 -85.5 -266.499s-140.167 -93.5 -249.5 -93.5s-192.666 31.167 -249.999 93.5s-86 151.166 -86 266.499z" />
    <glyph glyph-name="four" unicode="4" 
d="M29 260v205l409 969h246v-969h107v-205h-107v-260h-221v260h-434zM236 465h227v539z" />
    <glyph glyph-name="five" unicode="5" 
d="M72 344l-0.00195312 119.001h213v-133c0 -93.333 38.667 -140 116 -140c78 0 117 46.667 117 140v315c0 94 -39 141 -117 141c-77.333 0 -116 -47 -116 -141v-43h-213l41 832h594v-205h-392l-18 -342c42 69.333 107.667 104 197 104
c82.667 0 144.834 -27.833 186.501 -83.5s62.5 -136.834 62.5 -243.501v-320c0 -115.333 -28.5 -204.166 -85.5 -266.499s-140.167 -93.5 -249.5 -93.5s-192.666 31.167 -249.999 93.5s-86 151.166 -86 266.499z" />
    <glyph glyph-name="six" unicode="6" 
d="M68 344l0.000976562 732.999c0 248.667 114.667 373 344 373c109.333 0 192.666 -31.167 249.999 -93.5s86 -151.166 86 -266.499v-37h-213v51c0 94 -39 141 -117 141c-42.667 0 -74.167 -13 -94.5 -39s-30.5 -71.667 -30.5 -137v-262c40 84.667 109.667 127 209 127
c82.667 0 145 -28 187 -84s63 -137.333 63 -244v-262c0 -114.667 -29.5 -203.334 -88.5 -266.001s-143.5 -94 -253.5 -94s-194.5 31.333 -253.5 94s-88.5 151.334 -88.5 266.001zM293.001 329.999c0 -93.333 39 -140 117 -140c77.333 0 116 46.667 116 140v258
c0 94 -38.667 141 -116 141c-78 0 -117 -47 -117 -141v-258z" />
    <glyph glyph-name="seven" unicode="7" 
d="M68 1229v205h675v-197l-331 -1237h-226l330 1229h-448z" />
    <glyph glyph-name="eight" unicode="8" 
d="M53 344v113c0 146.667 46.667 246.334 140 299.001c-93.333 50.667 -140 146.667 -140 288v46c0 114.667 30.5 203.334 91.5 266.001s148.167 94 261.5 94s200.333 -31.333 261 -94s91 -151.334 91 -266.001v-46c0 -140 -46.667 -236 -140 -288
c93.333 -52.667 140 -152.334 140 -299.001v-113c0 -114.667 -30.333 -203.334 -91 -266.001s-147.667 -94 -261 -94s-200.5 31.333 -261.5 94s-91.5 151.334 -91.5 266.001zM279 350c0 -59.333 11.167 -101.167 33.5 -125.5s53.5 -36.5 93.5 -36.5c39.333 0 70 12 92 36
s33.333 66 34 126v133c0 108 -42 162 -126 162c-84.667 0 -127 -54 -127 -162v-133zM279 1001c0 -100.667 42.333 -151 127 -151c84 0 126 50.333 126 151v80c0 60.667 -11 103.167 -33 127.5s-53 36.5 -93 36.5s-71.167 -12.333 -93.5 -37s-33.5 -67 -33.5 -127v-80z" />
    <glyph glyph-name="nine" unicode="9" 
d="M59 827l-0.000976562 263.002c0 114.667 29.5 203.334 88.5 266.001s143.5 94 253.5 94s194.5 -31.333 253.5 -94s88.5 -151.334 88.5 -266.001v-734c0 -248 -114.667 -372 -344 -372c-109.333 0 -192.666 31.167 -249.999 93.5s-86 151.166 -86 266.499v37h213v-51
c0 -94.667 39 -142 117 -142c42 0 73.333 13.167 94 39.5s31 72.166 31 137.499v262c-40 -84.667 -109.667 -127 -209 -127c-82.667 0 -145 28 -187 84s-63 137 -63 243zM284.999 846.002c0 -94 38.667 -141 116 -141c78 0 117 47 117 141v258c0 92.667 -39 139 -117 139
c-77.333 0 -116 -46.333 -116 -139v-258z" />
    <glyph glyph-name="colon" unicode=":" horiz-adv-x="380" 
d="M82 0v217h217v-217h-217zM82 780v217h217v-217h-217z" />
    <glyph glyph-name="semicolon" unicode=";" horiz-adv-x="380" 
d="M82 0v217h217v-194l-98 -228h-92l59 205h-86zM82 780v217h217v-217h-217z" />
    <glyph glyph-name="less" unicode="&#x3c;" 
d="M61 637v160l668 245v-161l-459 -164l459 -164v-162z" />
    <glyph glyph-name="equal" unicode="=" 
d="M72 471v160h667v-160h-667zM72 803v160h667v-160h-667z" />
    <glyph glyph-name="greater" unicode="&#x3e;" 
d="M82 391v162l459 164l-459 164v161l668 -245v-160z" />
    <glyph glyph-name="question" unicode="?" horiz-adv-x="737" 
d="M41 948v142.003c0 115.333 28.167 204.166 84.5 266.499s138.833 93.5 247.5 93.5s191.167 -31.167 247.5 -93.5s84.5 -151.166 84.5 -266.499c0 -50.667 -4.83301 -97.834 -14.5 -141.501s-22.5 -81.5 -38.5 -113.5s-33.333 -62.333 -52 -91s-37.5 -56 -56.5 -82
s-36.5 -51.833 -52.5 -77.5s-28.833 -54.5 -38.5 -86.5s-14.5 -65.667 -14.5 -101c0 -29.333 2.66699 -56 8 -80h-200c-8.66699 27.333 -13 57 -13 89c0 57.333 8.5 109.666 25.5 156.999s37.5 88.5 61.5 123.5l72 106.5c24 36 44.5 80.5 61.5 133.5
s25.5 112.167 25.5 177.5c0 49.333 -9.33301 85.166 -28 107.499s-46.667 33.5 -84 33.5c-75.333 0 -113 -47 -113 -141v-156h-213zM236 0.00292969v217h217v-217h-217z" />
    <glyph glyph-name="at" unicode="@" horiz-adv-x="1411" 
d="M49 594c0 102 9.8291 198.669 29.4961 290.002s50 175.666 91 252.999s91 144 150 200s130 99.833 213 131.5s173.833 47.5 272.5 47.5c84 0 158.833 -10.333 224.5 -31s119.834 -49 162.501 -85s77.834 -79.833 105.501 -131.5s47.334 -106.5 59.001 -164.5
s17.5 -121.667 17.5 -191c0 -96.667 -8.83301 -183.667 -26.5 -261s-40.334 -139.833 -68.001 -187.5s-59.667 -87.334 -96 -119.001s-71.666 -53.834 -105.999 -66.501s-68.5 -19 -102.5 -19c-112.667 0 -172.667 45 -180 135c-42 -86 -108.333 -127 -199 -123
c-70.667 2 -121.5 30 -152.5 84s-41.5 131.333 -31.5 232l22 207c10 100.667 36.333 177 79 229s99.667 76.667 171 74c84 -2 140 -44.333 168 -127l12 119h197l-62 -592c-4 -34.667 9.66699 -52 41 -52c27.333 0 51.833 14.167 73.5 42.5s38.834 65.5 51.501 111.5
s22.334 95.333 29.001 148s10 106.334 10 161.001c0 134 -33.5 239.5 -100.5 316.5s-169.167 115.5 -306.5 115.5c-180 0 -317.5 -66.833 -412.5 -200.5s-142.5 -319.167 -142.5 -556.5c0 -169.333 39.667 -300.833 119 -394.5s198.666 -140.5 357.999 -140.5
c82 0 156.333 10 223 30s133.667 56.333 201 109l-17 -196c-64 -42.667 -129.5 -72.5 -196.5 -89.5s-141.167 -25.5 -222.5 -25.5c-112.667 0 -211.5 17.333 -296.5 52s-153.667 84 -206 148s-91.333 139.167 -117 225.5s-38.5 183.5 -38.5 291.5zM609.996 598.002
c-9.33301 -88 20 -132.999 88 -134.999c32 -1.33301 58 8.5 78 29.5s32.333 54.167 37 99.5l21 194c4 38 -2.5 66.667 -19.5 86s-40.167 29 -69.5 29c-32.667 1.33301 -59 -8.33398 -79 -29.001s-32.333 -54 -37 -100z" />
    <glyph glyph-name="A" unicode="A" horiz-adv-x="833" 
d="M23 0l229 1434h330l229 -1434h-227l-39 260h-277l-39 -260h-206zM297 455h217l-108 725z" />
    <glyph glyph-name="B" unicode="B" horiz-adv-x="831" 
d="M82 0v1434h340c115.333 0 199.833 -27 253.5 -81s80.5 -137 80.5 -249v-51c0 -146.667 -48.667 -243 -146 -289c112 -43.333 168 -145.666 168 -306.999v-117c0 -110.667 -29 -195 -87 -253s-143 -87 -255 -87h-354zM307 204.999l129.001 0.00195312
c39.333 0 68.666 10.667 87.999 32s29 57.666 29 108.999v125c0 65.333 -11.167 110.666 -33.5 135.999s-59.5 38 -111.5 38h-101v-440zM307.001 850.001h87.999c44.667 0 78.334 11.5 101.001 34.5s34 61.833 34 116.5v80c0 51.333 -9 88.833 -27 112.5s-47 35.5 -87 35.5
h-109v-379z" />
    <glyph glyph-name="C" unicode="C" horiz-adv-x="790" 
d="M63 344v746c0 115.333 28.667 204.166 86 266.499s140.666 93.5 249.999 93.5s192.666 -31.167 249.999 -93.5s86 -151.166 86 -266.499v-140h-213v154c0 94 -38.667 141 -116 141c-78 0 -117 -47 -117 -141v-774c0 -93.333 39 -140 117 -140
c77.333 0 116 46.667 116 140v205h213v-191c0 -115.333 -28.667 -204.166 -86 -266.499s-140.666 -93.5 -249.999 -93.5s-192.666 31.167 -249.999 93.5s-86 151.166 -86 266.499z" />
    <glyph glyph-name="D" unicode="D" horiz-adv-x="835" 
d="M82 0v1434h356c111.333 0 195.166 -30.333 251.499 -91s84.5 -148.667 84.5 -264v-725c0 -115.333 -28.167 -203.166 -84.5 -263.499s-140.166 -90.5 -251.499 -90.5h-356zM307 204.999h127c37.333 0 65.833 10.833 85.5 32.5s29.5 57.167 29.5 106.5v746
c0 49.333 -9.83301 84.833 -29.5 106.5s-48.167 32.5 -85.5 32.5h-127v-1024z" />
    <glyph glyph-name="E" unicode="E" horiz-adv-x="753" 
d="M82 0v1434h614v-205h-389v-400h309v-204h-309v-420h389v-205h-614z" />
    <glyph glyph-name="F" unicode="F" horiz-adv-x="704" 
d="M82 0v1434h596v-205h-371v-432h291v-205h-291v-592h-225z" />
    <glyph glyph-name="G" unicode="G" horiz-adv-x="798" 
d="M63 344v746c0 115.333 28.667 204.166 86 266.499s140.666 93.5 249.999 93.5s192.666 -31.167 249.999 -93.5s86 -151.166 86 -266.499v-140h-213v154c0 94 -38.667 141 -116 141c-78 0 -117 -47 -117 -141v-774c0 -93.333 39 -140 117 -140
c77.333 0 116 46.667 116 140v264h-102v205h315v-455c0 -115.333 -28.667 -204.166 -86 -266.499s-140.666 -93.5 -249.999 -93.5s-192.666 31.167 -249.999 93.5s-86 151.166 -86 266.499z" />
    <glyph glyph-name="H" unicode="H" horiz-adv-x="874" 
d="M82 0v1434h225v-615h256v615h230v-1434h-230v614h-256v-614h-225z" />
    <glyph glyph-name="I" unicode="I" horiz-adv-x="389" 
d="M82 0v1434h225v-1434h-225z" />
    <glyph glyph-name="J" unicode="J" horiz-adv-x="524" 
d="M20 0l-0.000976562 205c16.667 -1.33301 42.667 -2 78 -2c40.667 0 72.334 10 95.001 30s34 55.667 34 107v1094h226v-1078c0 -240 -108 -360 -324 -360c-48 0 -84.333 1.33301 -109 4z" />
    <glyph glyph-name="K" unicode="K" horiz-adv-x="847" 
d="M82 0v1434h225v-625l295 625h225l-313 -639l313 -795h-231l-219 571l-70 -131v-440h-225z" />
    <glyph glyph-name="L" unicode="L" horiz-adv-x="694" 
d="M82 0v1434h225v-1229h371v-205h-596z" />
    <glyph glyph-name="M" unicode="M" horiz-adv-x="1107" 
d="M80 0v1434h313l166 -1018l154 1018h313v-1434h-213v1028l-156 -1028h-213l-168 1014v-1014h-196z" />
    <glyph glyph-name="N" unicode="N" horiz-adv-x="874" 
d="M80 0v1434h282l232 -859v859h201v-1434h-232l-280 1038v-1038h-203z" />
    <glyph glyph-name="O" unicode="O" 
d="M63 344v746c0 114.667 29.667 203.334 89 266.001s144 94 254 94s194.5 -31.333 253.5 -94s88.5 -151.334 88.5 -266.001v-746c0 -114.667 -29.5 -203.334 -88.5 -266.001s-143.5 -94 -253.5 -94s-194.667 31.333 -254 94s-89 151.334 -89 266.001zM289 330
c0 -94.667 39 -142 117 -142c77.333 0 116 47.333 116 142v774c0 94 -38.667 141 -116 141c-78 0 -117 -47 -117 -141v-774z" />
    <glyph glyph-name="P" unicode="P" horiz-adv-x="782" 
d="M82 0v1434h332c111.333 0 195.166 -30.333 251.499 -91s84.5 -148.667 84.5 -264v-186c0 -115.333 -28.167 -203.166 -84.5 -263.499s-140.166 -90.5 -251.499 -90.5h-107v-539h-225zM307 742.999l107 0.000976562c37.333 0 65 10.333 83 31s27 55.667 27 105v215
c0 49.333 -9 84.166 -27 104.499s-45.667 30.5 -83 30.5h-107v-486z" />
    <glyph glyph-name="Q" unicode="Q" 
d="M63 344l-0.000976562 746c0 114.667 29.667 203.334 89 266.001s144 94 254 94s194.5 -31.333 253.5 -94s88.5 -151.334 88.5 -266.001v-746c0 -81.333 -14.333 -148.333 -43 -201c4.66699 -12.667 11.334 -20.834 20.001 -24.501s23 -5.5 43 -5.5h20v-201h-30
c-96.667 0 -161.667 32.667 -195 98c-48.667 -17.333 -101 -26 -157 -26c-110 0 -194.667 31.333 -254 94s-89 151.334 -89 266.001zM288.999 330c0 -94.667 39 -142 117 -142c77.333 0 116 47.333 116 142v774c0 94 -38.667 141 -116 141c-78 0 -117 -47 -117 -141v-774z
" />
    <glyph glyph-name="R" unicode="R" horiz-adv-x="823" 
d="M82 0l-0.000976562 1434h340c115.333 0 199.833 -27 253.5 -81s80.5 -137 80.5 -249v-113c0 -147.333 -49.333 -244.333 -148 -291c54 -22.667 92.5 -59.334 115.5 -110.001s34.5 -115.667 34.5 -195v-221c0 -79.333 8 -137.333 24 -174h-229
c-5.33301 16.667 -9 29.167 -11 37.5s-4.16699 24.333 -6.5 48s-3.5 53.834 -3.5 90.501v225c0 66 -11.667 113 -35 141s-60.666 42 -111.999 42h-78v-584h-225zM306.999 788h87.999c44.667 0 78.334 11.5 101.001 34.5s34 62.167 34 117.5v141
c0 51.333 -9 88.833 -27 112.5s-47 35.5 -87 35.5h-109v-441z" />
    <glyph glyph-name="S" unicode="S" horiz-adv-x="765" 
d="M47 344l-0.000976562 87.999h213v-102c0 -93.333 39 -140 117 -140s117 46.667 117 140c0 40 -8.16699 77.667 -24.5 113s-37.333 67.166 -63 95.499s-54.167 56.666 -85.5 84.999l-94.5 89c-31.667 31 -60.334 63.833 -86.001 98.5s-46.667 76 -63 124
s-24.5 99.667 -24.5 155c0 115.333 28.167 204.166 84.5 266.499s138.833 93.5 247.5 93.5s191.167 -31.167 247.5 -93.5s84.5 -151.166 84.5 -266.499v-46h-213v60c0 94 -37.667 141 -113 141c-37.333 0 -65.333 -11.167 -84 -33.5s-28 -58.166 -28 -107.499
c0 -40 8.16699 -77.667 24.5 -113s37.333 -67.166 63 -95.499s54.167 -56.666 85.5 -84.999l94 -89c31.333 -31 59.833 -63.833 85.5 -98.5s46.667 -76 63 -124s24.5 -99.667 24.5 -155c0 -115.333 -28.667 -204.166 -86 -266.499s-140.666 -93.5 -249.999 -93.5
s-192.666 31.167 -249.999 93.5s-86 151.166 -86 266.499z" />
    <glyph glyph-name="T" unicode="T" horiz-adv-x="729" 
d="M16 1229v205h697v-205h-236v-1229h-225v1229h-236z" />
    <glyph glyph-name="U" unicode="U" horiz-adv-x="815" 
d="M72 342l-0.000976562 1092h225v-1106c0 -93.333 39 -140 117 -140c77.333 0 116 46.667 116 140v1106h213v-1092c0 -115.333 -28.5 -204.166 -85.5 -266.499s-140.167 -93.5 -249.5 -93.5s-192.666 31.167 -249.999 93.5s-86 151.166 -86 266.499z" />
    <glyph glyph-name="V" unicode="V" horiz-adv-x="823" 
d="M23 1434h227l172 -1170l172 1170h207l-221 -1434h-336z" />
    <glyph glyph-name="W" unicode="W" horiz-adv-x="1153" 
d="M31 1434h219l121 -1131l108 1131h217l113 -1139l117 1139h196l-159 -1434h-299l-82 764l-82 -764h-310z" />
    <glyph glyph-name="X" unicode="X" horiz-adv-x="880" 
d="M31 0l252 737l-236 697h234l170 -529l174 529h209l-236 -697l252 -737h-238l-184 567l-186 -567h-211z" />
    <glyph glyph-name="Y" unicode="Y" 
d="M8 1434h236l172 -654l172 654h215l-285 -959v-475h-225v475z" />
    <glyph glyph-name="Z" unicode="Z" horiz-adv-x="757" 
d="M47 0v201l428 1028h-407v205h639v-201l-428 -1028h428v-205h-660z" />
    <glyph glyph-name="bracketleft" unicode="[" horiz-adv-x="514" 
d="M96 0v1434h373v-185h-147v-1065h147v-184h-373z" />
    <glyph glyph-name="backslash" unicode="\" horiz-adv-x="780" 
d="M10 1434h195l565 -1434h-195z" />
    <glyph glyph-name="bracketright" unicode="]" horiz-adv-x="514" 
d="M45 0v184h148v1065h-148v185h373v-1434h-373z" />
    <glyph glyph-name="asciicircum" unicode="^" 
d="M41 799l285 635h159l285 -635h-180l-184 430l-185 -430h-180z" />
    <glyph glyph-name="underscore" unicode="_" horiz-adv-x="1024" 
d="M0 -20h1024v-164h-1024v164z" />
    <glyph glyph-name="grave" unicode="`" horiz-adv-x="512" 
d="M90 1737h232l139 -228h-162z" />
    <glyph glyph-name="a" unicode="a" horiz-adv-x="833" 
d="M23 0l229 1434h330l229 -1434h-227l-39 260h-277l-39 -260h-206zM297 455h217l-108 725z" />
    <glyph glyph-name="b" unicode="b" horiz-adv-x="831" 
d="M82 0v1434h340c115.333 0 199.833 -27 253.5 -81s80.5 -137 80.5 -249v-51c0 -146.667 -48.667 -243 -146 -289c112 -43.333 168 -145.666 168 -306.999v-117c0 -110.667 -29 -195 -87 -253s-143 -87 -255 -87h-354zM307 204.999l129.001 0.00195312
c39.333 0 68.666 10.667 87.999 32s29 57.666 29 108.999v125c0 65.333 -11.167 110.666 -33.5 135.999s-59.5 38 -111.5 38h-101v-440zM307.001 850.001h87.999c44.667 0 78.334 11.5 101.001 34.5s34 61.833 34 116.5v80c0 51.333 -9 88.833 -27 112.5s-47 35.5 -87 35.5
h-109v-379z" />
    <glyph glyph-name="c" unicode="c" horiz-adv-x="790" 
d="M63 344v746c0 115.333 28.667 204.166 86 266.499s140.666 93.5 249.999 93.5s192.666 -31.167 249.999 -93.5s86 -151.166 86 -266.499v-140h-213v154c0 94 -38.667 141 -116 141c-78 0 -117 -47 -117 -141v-774c0 -93.333 39 -140 117 -140
c77.333 0 116 46.667 116 140v205h213v-191c0 -115.333 -28.667 -204.166 -86 -266.499s-140.666 -93.5 -249.999 -93.5s-192.666 31.167 -249.999 93.5s-86 151.166 -86 266.499z" />
    <glyph glyph-name="d" unicode="d" horiz-adv-x="835" 
d="M82 0v1434h356c111.333 0 195.166 -30.333 251.499 -91s84.5 -148.667 84.5 -264v-725c0 -115.333 -28.167 -203.166 -84.5 -263.499s-140.166 -90.5 -251.499 -90.5h-356zM307 204.999h127c37.333 0 65.833 10.833 85.5 32.5s29.5 57.167 29.5 106.5v746
c0 49.333 -9.83301 84.833 -29.5 106.5s-48.167 32.5 -85.5 32.5h-127v-1024z" />
    <glyph glyph-name="e" unicode="e" horiz-adv-x="753" 
d="M82 0v1434h614v-205h-389v-400h309v-204h-309v-420h389v-205h-614z" />
    <glyph glyph-name="f" unicode="f" horiz-adv-x="704" 
d="M82 0v1434h596v-205h-371v-432h291v-205h-291v-592h-225z" />
    <glyph glyph-name="g" unicode="g" horiz-adv-x="798" 
d="M63 344v746c0 115.333 28.667 204.166 86 266.499s140.666 93.5 249.999 93.5s192.666 -31.167 249.999 -93.5s86 -151.166 86 -266.499v-140h-213v154c0 94 -38.667 141 -116 141c-78 0 -117 -47 -117 -141v-774c0 -93.333 39 -140 117 -140
c77.333 0 116 46.667 116 140v264h-102v205h315v-455c0 -115.333 -28.667 -204.166 -86 -266.499s-140.666 -93.5 -249.999 -93.5s-192.666 31.167 -249.999 93.5s-86 151.166 -86 266.499z" />
    <glyph glyph-name="h" unicode="h" horiz-adv-x="874" 
d="M82 0v1434h225v-615h256v615h230v-1434h-230v614h-256v-614h-225z" />
    <glyph glyph-name="i" unicode="i" horiz-adv-x="389" 
d="M82 0v1434h225v-1434h-225z" />
    <glyph glyph-name="j" unicode="j" horiz-adv-x="524" 
d="M20 0l-0.000976562 205c16.667 -1.33301 42.667 -2 78 -2c40.667 0 72.334 10 95.001 30s34 55.667 34 107v1094h226v-1078c0 -240 -108 -360 -324 -360c-48 0 -84.333 1.33301 -109 4z" />
    <glyph glyph-name="k" unicode="k" horiz-adv-x="847" 
d="M82 0v1434h225v-625l295 625h225l-313 -639l313 -795h-231l-219 571l-70 -131v-440h-225z" />
    <glyph glyph-name="l" unicode="l" horiz-adv-x="694" 
d="M82 0v1434h225v-1229h371v-205h-596z" />
    <glyph glyph-name="m" unicode="m" horiz-adv-x="1107" 
d="M80 0v1434h313l166 -1018l154 1018h313v-1434h-213v1028l-156 -1028h-213l-168 1014v-1014h-196z" />
    <glyph glyph-name="n" unicode="n" horiz-adv-x="874" 
d="M80 0v1434h282l232 -859v859h201v-1434h-232l-280 1038v-1038h-203z" />
    <glyph glyph-name="o" unicode="o" 
d="M63 344v746c0 114.667 29.667 203.334 89 266.001s144 94 254 94s194.5 -31.333 253.5 -94s88.5 -151.334 88.5 -266.001v-746c0 -114.667 -29.5 -203.334 -88.5 -266.001s-143.5 -94 -253.5 -94s-194.667 31.333 -254 94s-89 151.334 -89 266.001zM289 330
c0 -94.667 39 -142 117 -142c77.333 0 116 47.333 116 142v774c0 94 -38.667 141 -116 141c-78 0 -117 -47 -117 -141v-774z" />
    <glyph glyph-name="p" unicode="p" horiz-adv-x="772" 
d="M82 0v1434h332c111.333 0 195.166 -30.333 251.499 -91s84.5 -148.667 84.5 -264v-186c0 -115.333 -28.167 -203.166 -84.5 -263.499s-140.166 -90.5 -251.499 -90.5h-107v-539h-225zM307 742.999l107 0.000976562c37.333 0 65 10.333 83 31s27 55.667 27 105v215
c0 49.333 -9 84.166 -27 104.499s-45.667 30.5 -83 30.5h-107v-486z" />
    <glyph glyph-name="q" unicode="q" 
d="M63 344l-0.000976562 746c0 114.667 29.667 203.334 89 266.001s144 94 254 94s194.5 -31.333 253.5 -94s88.5 -151.334 88.5 -266.001v-746c0 -81.333 -14.333 -148.333 -43 -201c4.66699 -12.667 11.334 -20.834 20.001 -24.501s23 -5.5 43 -5.5h20v-201h-30
c-96.667 0 -161.667 32.667 -195 98c-48.667 -17.333 -101 -26 -157 -26c-110 0 -194.667 31.333 -254 94s-89 151.334 -89 266.001zM288.999 330c0 -94.667 39 -142 117 -142c77.333 0 116 47.333 116 142v774c0 94 -38.667 141 -116 141c-78 0 -117 -47 -117 -141v-774z
" />
    <glyph glyph-name="r" unicode="r" horiz-adv-x="823" 
d="M82 0l-0.000976562 1434h340c115.333 0 199.833 -27 253.5 -81s80.5 -137 80.5 -249v-113c0 -147.333 -49.333 -244.333 -148 -291c54 -22.667 92.5 -59.334 115.5 -110.001s34.5 -115.667 34.5 -195v-221c0 -79.333 8 -137.333 24 -174h-229
c-5.33301 16.667 -9 29.167 -11 37.5s-4.16699 24.333 -6.5 48s-3.5 53.834 -3.5 90.501v225c0 66 -11.667 113 -35 141s-60.666 42 -111.999 42h-78v-584h-225zM306.999 788h87.999c44.667 0 78.334 11.5 101.001 34.5s34 62.167 34 117.5v141
c0 51.333 -9 88.833 -27 112.5s-47 35.5 -87 35.5h-109v-441z" />
    <glyph glyph-name="s" unicode="s" horiz-adv-x="765" 
d="M47 344l-0.000976562 87.999h213v-102c0 -93.333 39 -140 117 -140s117 46.667 117 140c0 40 -8.16699 77.667 -24.5 113s-37.333 67.166 -63 95.499s-54.167 56.666 -85.5 84.999l-94.5 89c-31.667 31 -60.334 63.833 -86.001 98.5s-46.667 76 -63 124
s-24.5 99.667 -24.5 155c0 115.333 28.167 204.166 84.5 266.499s138.833 93.5 247.5 93.5s191.167 -31.167 247.5 -93.5s84.5 -151.166 84.5 -266.499v-46h-213v60c0 94 -37.667 141 -113 141c-37.333 0 -65.333 -11.167 -84 -33.5s-28 -58.166 -28 -107.499
c0 -40 8.16699 -77.667 24.5 -113s37.333 -67.166 63 -95.499s54.167 -56.666 85.5 -84.999l94 -89c31.333 -31 59.833 -63.833 85.5 -98.5s46.667 -76 63 -124s24.5 -99.667 24.5 -155c0 -115.333 -28.667 -204.166 -86 -266.499s-140.666 -93.5 -249.999 -93.5
s-192.666 31.167 -249.999 93.5s-86 151.166 -86 266.499z" />
    <glyph glyph-name="t" unicode="t" horiz-adv-x="729" 
d="M16 1229v205h697v-205h-236v-1229h-225v1229h-236z" />
    <glyph glyph-name="u" unicode="u" horiz-adv-x="815" 
d="M72 342l-0.000976562 1092h225v-1106c0 -93.333 39 -140 117 -140c77.333 0 116 46.667 116 140v1106h213v-1092c0 -115.333 -28.5 -204.166 -85.5 -266.499s-140.167 -93.5 -249.5 -93.5s-192.666 31.167 -249.999 93.5s-86 151.166 -86 266.499z" />
    <glyph glyph-name="v" unicode="v" horiz-adv-x="823" 
d="M23 1434h227l172 -1170l172 1170h207l-221 -1434h-336z" />
    <glyph glyph-name="w" unicode="w" horiz-adv-x="1153" 
d="M31 1434h219l121 -1131l108 1131h217l113 -1139l117 1139h196l-159 -1434h-299l-82 764l-82 -764h-310z" />
    <glyph glyph-name="x" unicode="x" horiz-adv-x="880" 
d="M31 0l252 737l-236 697h234l170 -529l174 529h209l-236 -697l252 -737h-238l-184 567l-186 -567h-211z" />
    <glyph glyph-name="y" unicode="y" 
d="M8 1434h236l172 -654l172 654h215l-285 -959v-475h-225v475z" />
    <glyph glyph-name="z" unicode="z" horiz-adv-x="757" 
d="M47 0v201l428 1028h-407v205h639v-201l-428 -1028h428v-205h-660z" />
    <glyph glyph-name="braceleft" unicode="{" horiz-adv-x="526" 
d="M23 625v184.001c42 0 70.333 8.5 85 25.5s23.667 49.5 27 97.5l17 274c4.66699 75.333 27.167 132.166 67.5 170.499s93.5 57.5 159.5 57.5h115v-185h-33c-36.667 0 -63.334 -10.333 -80.001 -31s-26.334 -58.667 -29.001 -114l-10 -205
c-5.33301 -100 -49.666 -160.667 -132.999 -182c83.333 -21.333 127.666 -82 132.999 -182l10 -205c2.66699 -55.333 12.334 -93.5 29.001 -114.5s43.334 -31.5 80.001 -31.5h33v-184h-115c-66 0 -119.167 19 -159.5 57s-62.833 94.667 -67.5 170l-17 275
c-3.33301 48 -12.333 80.5 -27 97.5s-43 25.5 -85 25.5z" />
    <glyph glyph-name="bar" unicode="|" horiz-adv-x="1024" 
d="M430 -133v1700h184v-1700h-184z" />
    <glyph glyph-name="braceright" unicode="}" horiz-adv-x="526" 
d="M33 0v183.999h33c36.667 0 63.167 10.5 79.5 31.5s25.833 59.167 28.5 114.5l10 205c5.33301 100 49.666 160.667 132.999 182c-83.333 21.333 -127.666 82 -132.999 182l-10 205c-2.66699 55.333 -12.167 93.333 -28.5 114s-42.833 31 -79.5 31h-33v185h114
c66 0 119.333 -19.167 160 -57.5s63.334 -95.166 68.001 -170.499l16 -274c3.33301 -48 12.5 -80.5 27.5 -97.5s43.5 -25.5 85.5 -25.5v-184c-42 0 -70.5 -8.5 -85.5 -25.5s-24.167 -49.5 -27.5 -97.5l-16 -275c-4.66699 -75.333 -27.334 -132 -68.001 -170
s-94 -57 -160 -57h-114z" />
    <glyph glyph-name="asciitilde" unicode="~" 
d="M16 680c46.667 69.333 88.6689 117.332 126.002 143.999s76.666 40 117.999 40c24.667 0 51.5 -6.5 80.5 -19.5s54.167 -27.333 75.5 -43s44.833 -30 70.5 -43s47.834 -19.5 66.501 -19.5c22.667 0 42.5 7.83301 59.5 23.5s42.167 46.834 75.5 93.501l107 -111
c-46 -68 -87.5 -114.333 -124.5 -139s-76.833 -37 -119.5 -37c-24.667 0 -51.5 6.5 -80.5 19.5s-54.167 27.333 -75.5 43s-44.833 30 -70.5 43s-47.834 19.5 -66.501 19.5c-22.667 0 -42.834 -7.83301 -60.501 -23.5s-42.5 -46.5 -74.5 -92.5z" />
    <glyph glyph-name="uni00A0" unicode="&#xa0;" horiz-adv-x="317" 
 />
    <glyph glyph-name="cent" unicode="&#xa2;" 
d="M74 426v581.998c0 96.667 20.167 174.834 60.5 234.501s99.833 98.167 178.5 115.5v106h185v-104c164.667 -33.333 247 -150.666 247 -351.999v-99h-213v113c0 94 -38.667 141 -116 141c-78 0 -117 -47 -117 -141v-610c0 -93.333 39 -140 117 -140
c77.333 0 116 46.667 116 140v163h213v-149c0 -99.333 -20.833 -179 -62.5 -239s-103.167 -97.667 -184.5 -113v-105h-185v107c-78.667 16.667 -138.167 54.667 -178.5 114s-60.5 138 -60.5 236z" />
    <glyph glyph-name="sterling" unicode="&#xa3;" 
d="M61 0l-0.00195312 197.001c54.667 0 100.334 21 137.001 63s56 98.667 58 170h-166v174h137c-9.33301 26 -23.5 59 -42.5 99l-49 104.5c-13.667 29.667 -26 69.667 -37 120s-16.5 104.5 -16.5 162.5c0 115.333 28.167 204.166 84.5 266.499s138.833 93.5 247.5 93.5
s191 -31.167 247 -93.5s84 -151.166 84 -266.499v-142h-213v156c0 49.333 -9.33301 85.166 -28 107.499s-46.667 33.5 -84 33.5c-75.333 0 -113 -47 -113 -141c0 -58.667 5.5 -113.5 16.5 -164.5s23.333 -91.833 37 -122.5l46 -106c17 -40 29.5 -75.667 37.5 -107h248v-174
h-233c-9.33301 -96 -47.666 -171 -114.999 -225h387v-205h-670z" />
    <glyph glyph-name="yen" unicode="&#xa5;" 
d="M14 1434h236l166 -633l166 633h215l-262 -879h170v-113h-187v-92h187v-112h-187v-238h-225v238h-187v112h187v92h-187v113h168z" />
    <glyph glyph-name="dieresis" unicode="&#xa8;" horiz-adv-x="512" 
d="M2 1509v197h197v-197h-197zM313 1509v197h197v-197h-197z" />
    <glyph glyph-name="copyright" unicode="&#xa9;" horiz-adv-x="1507" 
d="M41 717c0 104.667 18.167 202.667 54.5 294s86.166 169 149.499 233s139 114.333 227 151s182 55 282 55s194 -18.333 282 -55s163.5 -87.167 226.5 -151.5s112.667 -142 149 -233s54.5 -188.833 54.5 -293.5s-18.167 -202.5 -54.5 -293.5s-86 -168.667 -149 -233
s-138.5 -114.833 -226.5 -151.5s-182 -55 -282 -55s-194 18.333 -282 55s-163.667 87 -227 151s-113.166 141.667 -149.499 233s-54.5 189.333 -54.5 294zM188 717c0 -112 24.5 -213.167 73.5 -303.5s116.667 -160.666 203 -210.999s182.833 -75.5 289.5 -75.5
s203 25.167 289 75.5s153.5 120.666 202.5 210.999s73.5 191.5 73.5 303.5s-24.5 213.167 -73.5 303.5s-116.5 160.666 -202.5 210.999s-182.333 75.5 -289 75.5s-203.167 -25.167 -289.5 -75.5s-154 -120.666 -203 -210.999s-73.5 -191.5 -73.5 -303.5zM514 516
l-0.000976562 397c0 82.667 19.333 145.667 58 189s96.334 65 173.001 65s134.5 -21.667 173.5 -65s58.5 -106.333 58.5 -189v-73h-148v86c0 65.333 -26.333 98 -79 98c-53.333 0 -80 -32.667 -80 -98v-418c0 -64 26.667 -96 80 -96c52.667 0 79 32 79 96v123h148v-115
c0 -80.667 -19.667 -142.5 -59 -185.5s-97 -64.5 -173 -64.5s-133.5 21.5 -172.5 64.5s-58.5 104.833 -58.5 185.5z" />
    <glyph glyph-name="guillemotleft" unicode="&#xab;" horiz-adv-x="727" 
d="M33 719l127 526h202l-124 -526l124 -559h-202zM365 719l127 526h202l-125 -526l125 -559h-202z" />
    <glyph glyph-name="uni00AD" unicode="&#xad;" horiz-adv-x="552" 
d="M72 614v205h409v-205h-409z" />
    <glyph glyph-name="registered" unicode="&#xae;" horiz-adv-x="1507" 
d="M41 717c0 104.667 18.167 202.667 54.5 294s86.166 169 149.499 233s139 114.333 227 151s182 55 282 55s194 -18.333 282 -55s163.5 -87.167 226.5 -151.5s112.667 -142 149 -233s54.5 -188.833 54.5 -293.5s-18.167 -202.5 -54.5 -293.5s-86 -168.667 -149 -233
s-138.5 -114.833 -226.5 -151.5s-182 -55 -282 -55s-194 18.333 -282 55s-163.667 87 -227 151s-113.166 141.667 -149.499 233s-54.5 189.333 -54.5 294zM188 717c0 -112 24.5 -213.167 73.5 -303.5s116.667 -160.666 203 -210.999s182.833 -75.5 289.5 -75.5
s203 25.167 289 75.5s153.5 120.666 202.5 210.999s73.5 191.5 73.5 303.5s-24.5 213.167 -73.5 303.5s-116.5 160.666 -202.5 210.999s-182.333 75.5 -289 75.5s-203.167 -25.167 -289.5 -75.5s-154 -120.666 -203 -210.999s-73.5 -191.5 -73.5 -303.5zM528 279
l0.00195312 875.999h238c79.333 0 137.666 -18.833 174.999 -56.5s56 -95.167 56 -172.5v-19c0 -103.333 -35.333 -170.666 -106 -201.999c38 -16 65.167 -41.5 81.5 -76.5s24.5 -79.833 24.5 -134.5v-95c0 -50.667 6.33301 -90.667 19 -120h-160
c-9.33301 25.333 -14 66 -14 122v95c0 46 -8.33301 78.667 -25 98s-43.334 29 -80.001 29h-53v-344h-156zM684.002 765.999h63.999c30.667 0 54 7.83301 70 23.5s24 42.5 24 80.5v37c0 36 -6.66699 62.5 -20 79.5s-34.666 25.5 -63.999 25.5h-74v-246z" />
    <glyph glyph-name="acute" unicode="&#xb4;" horiz-adv-x="512" 
d="M55 1509l140 228h221l-209 -228h-152z" />
    <glyph glyph-name="cedilla" unicode="&#xb8;" horiz-adv-x="512" 
d="M53 -162h152v-16c0 -27.333 15 -41 45 -41c34 0 51 16.333 51 49c0 19.333 -6 33 -18 41s-30.667 12 -56 12h-20v146h98v-109c52 0 90.333 -7.33301 115 -22s37 -39.334 37 -74.001c0 -26.667 -4.83301 -48.667 -14.5 -66s-24.5 -30.166 -44.5 -38.499
s-41.167 -13.833 -63.5 -16.5s-50.5 -4 -84.5 -4c-62.667 0 -111.167 8.83301 -145.5 26.5s-51.5 48.5 -51.5 92.5v20z" />
    <glyph glyph-name="guillemotright" unicode="&#xbb;" horiz-adv-x="727" 
d="M33 160l125 559l-125 526h203l126 -526l-126 -559h-203zM365 160l124 559l-124 526h202l127 -526l-127 -559h-202z" />
    <glyph glyph-name="circumflex" unicode="&#x2c6;" horiz-adv-x="512" 
d="M-27 1509l183 228h202l183 -228h-193l-92 113l-90 -113h-193z" />
    <glyph glyph-name="ring" unicode="&#x2da;" horiz-adv-x="512" 
d="M92 1667c0 46 15.833 84.833 47.5 116.5s70.5 47.5 116.5 47.5s84.833 -15.833 116.5 -47.5s47.5 -70.5 47.5 -116.5s-15.833 -84.833 -47.5 -116.5s-70.5 -47.5 -116.5 -47.5s-84.833 15.833 -116.5 47.5s-47.5 70.5 -47.5 116.5zM195 1667
c0 -17.333 5.83301 -31.833 17.5 -43.5s26.167 -17.5 43.5 -17.5s31.833 5.83301 43.5 17.5s17.5 26.167 17.5 43.5s-5.83301 32 -17.5 44s-26.167 18 -43.5 18s-31.833 -6 -43.5 -18s-17.5 -26.667 -17.5 -44z" />
    <glyph glyph-name="tilde" unicode="&#x2dc;" horiz-adv-x="512" 
d="M-20 1577c34.667 92.667 92.667 139 174 139c30.667 0 64.5 -8.5 101.5 -25.5s64.5 -25.5 82.5 -25.5c20.667 0 37.667 3.83301 51 11.5s25.666 23.5 36.999 47.5l109 -75c-35.333 -93.333 -93.666 -140 -174.999 -140c-30.667 0 -64.5 8.66699 -101.5 26
s-64.5 26 -82.5 26c-20.667 0 -37.5 -4 -50.5 -12s-25.5 -24 -37.5 -48z" />
    <glyph glyph-name="afii10023" unicode="&#x401;" horiz-adv-x="753" 
d="M82 0v1434h614v-205h-389v-400h309v-204h-309v-420h389v-205h-614zM133 1509v197h197v-197h-197zM444 1509v197h197v-197h-197z" />
    <glyph glyph-name="afii10017" unicode="&#x410;" horiz-adv-x="833" 
d="M23 0l229 1434h330l229 -1434h-227l-39 260h-277l-39 -260h-206zM297 455h217l-108 725z" />
    <glyph glyph-name="afii10018" unicode="&#x411;" horiz-adv-x="849" 
d="M84 0v1434h631v-205h-406v-367h131c112 0 196.667 -30.167 254 -90.5s86 -148.166 86 -263.499v-154c0 -115.333 -28.667 -203.166 -86 -263.499s-142 -90.5 -254 -90.5h-356zM309 204.998l131 -0.00195312c38 0 66.667 10.333 86 31s29 55.334 29 104.001v182
c0 48.667 -9.66699 83.334 -29 104.001s-48 31 -86 31h-131v-452z" />
    <glyph glyph-name="afii10019" unicode="&#x412;" horiz-adv-x="831" 
d="M82 0v1434h340c115.333 0 199.833 -27 253.5 -81s80.5 -137 80.5 -249v-51c0 -146.667 -48.667 -243 -146 -289c112 -43.333 168 -145.666 168 -306.999v-117c0 -110.667 -29 -195 -87 -253s-143 -87 -255 -87h-354zM307 204.999l129.001 0.00195312
c39.333 0 68.666 10.667 87.999 32s29 57.666 29 108.999v125c0 65.333 -11.167 110.666 -33.5 135.999s-59.5 38 -111.5 38h-101v-440zM307.001 850.001h87.999c44.667 0 78.334 11.5 101.001 34.5s34 61.833 34 116.5v80c0 51.333 -9 88.833 -27 112.5s-47 35.5 -87 35.5
h-109v-379z" />
    <glyph glyph-name="afii10020" unicode="&#x413;" horiz-adv-x="747" 
d="M84 0v1434h594v-205h-369v-1229h-225z" />
    <glyph glyph-name="afii10021" unicode="&#x414;" horiz-adv-x="999" 
d="M33 -193v394.001h88c18.667 23.333 32 49.166 40 77.499s13 64.5 15 108.5l51 1047h631v-1233h98v-394h-223v193h-481v-193h-219zM334 201.001l295 0.00195312v1028h-191l-41 -838c-2.66699 -52.667 -9 -92.834 -19 -120.501s-24.667 -50.834 -44 -69.501z" />
    <glyph glyph-name="afii10022" unicode="&#x415;" horiz-adv-x="753" 
d="M82 0v1434h614v-205h-389v-400h309v-204h-309v-420h389v-205h-614z" />
    <glyph glyph-name="afii10024" unicode="&#x416;" horiz-adv-x="1236" 
d="M16 0l279 846l-279 588h226l266 -580v580h223v-580l266 580h226l-277 -582l277 -852h-232l-205 635l-55 -109v-526h-223v526l-55 111l-205 -637h-232z" />
    <glyph glyph-name="afii10025" unicode="&#x417;" 
d="M70 344l-0.00195312 157.997h213v-172c0 -94.667 38.667 -142 116 -142c38.667 0 67.834 12 87.501 36s29.5 66 29.5 126v113c0 65.333 -11.5 112 -34.5 140s-60.5 42 -112.5 42h-56v205h68c44.667 0 78.334 11.5 101.001 34.5s34 61.833 34 116.5v80
c0 61.333 -9.83301 104 -29.5 128s-48.834 36 -87.501 36c-78.667 0 -118 -47 -118 -141v-117h-207v107c0 115.333 28 203.5 84 264.5s138.667 91.5 248 91.5s192.5 -31.167 249.5 -93.5s85.5 -151.166 85.5 -266.499v-37c0 -153.333 -52.333 -251.666 -157 -294.999
c104.667 -45.333 157 -145.666 157 -300.999v-113c0 -115.333 -28.5 -204.166 -85.5 -266.499s-140.167 -93.5 -249.5 -93.5s-192.666 31.167 -249.999 93.5s-86 151.166 -86 266.499z" />
    <glyph glyph-name="afii10026" unicode="&#x418;" horiz-adv-x="874" 
d="M82 0v1434h201v-908l82 316l184 592h248v-1434h-203v1010l-92 -353l-189 -657h-231z" />
    <glyph glyph-name="afii10027" unicode="&#x419;" horiz-adv-x="878" 
d="M82 0h231l189 657l92 353v-1010h203v1434h-248l-184 -592l-82 -316v908h-201v-1434zM207 1753h138.999c2.66699 -36 11.5 -60.667 26.5 -74s38.167 -20 69.5 -20c32.667 0 57.334 6.66699 74.001 20s26.334 38 29.001 74h137c0 -71.333 -20.333 -127 -61 -167
s-100.334 -60 -179.001 -60c-76.667 0 -134.5 19.833 -173.5 59.5s-59.5 95.5 -61.5 167.5z" />
    <glyph glyph-name="afii10028" unicode="&#x41a;" horiz-adv-x="847" 
d="M82 0v1434h225v-625l295 625h225l-313 -639l313 -795h-231l-219 571l-70 -131v-440h-225z" />
    <glyph glyph-name="afii10029" unicode="&#x41b;" horiz-adv-x="921" 
d="M18 -2v205.002c28 0 49.667 1.33301 65 4s29 9.16699 41 19.5s20.333 25.166 25 44.499s7.66699 45.666 9 78.999l37 1084h636v-1434h-229v1229h-196l-25 -867c-4 -130.667 -31.5 -224 -82.5 -280s-132.833 -84 -245.5 -84h-35z" />
    <glyph glyph-name="afii10030" unicode="&#x41c;" horiz-adv-x="1107" 
d="M80 0v1434h313l166 -1018l154 1018h313v-1434h-213v1028l-156 -1028h-213l-168 1014v-1014h-196z" />
    <glyph glyph-name="afii10031" unicode="&#x41d;" horiz-adv-x="874" 
d="M82 0v1434h225v-615h256v615h230v-1434h-230v614h-256v-614h-225z" />
    <glyph glyph-name="afii10032" unicode="&#x41e;" 
d="M63 344v746c0 114.667 29.667 203.334 89 266.001s144 94 254 94s194.5 -31.333 253.5 -94s88.5 -151.334 88.5 -266.001v-746c0 -114.667 -29.5 -203.334 -88.5 -266.001s-143.5 -94 -253.5 -94s-194.667 31.333 -254 94s-89 151.334 -89 266.001zM289 330
c0 -94.667 39 -142 117 -142c77.333 0 116 47.333 116 142v774c0 94 -38.667 141 -116 141c-78 0 -117 -47 -117 -141v-774z" />
    <glyph glyph-name="afii10033" unicode="&#x41f;" horiz-adv-x="874" 
d="M82 0v1434h711v-1434h-230v1229h-256v-1229h-225z" />
    <glyph glyph-name="afii10034" unicode="&#x420;" horiz-adv-x="772" 
d="M82 0v1434h332c111.333 0 195.166 -30.333 251.499 -91s84.5 -148.667 84.5 -264v-186c0 -115.333 -28.167 -203.166 -84.5 -263.499s-140.166 -90.5 -251.499 -90.5h-107v-539h-225zM307 742.999l107 0.000976562c37.333 0 65 10.333 83 31s27 55.667 27 105v215
c0 49.333 -9 84.166 -27 104.499s-45.667 30.5 -83 30.5h-107v-486z" />
    <glyph glyph-name="afii10035" unicode="&#x421;" horiz-adv-x="790" 
d="M63 344v746c0 115.333 28.667 204.166 86 266.499s140.666 93.5 249.999 93.5s192.666 -31.167 249.999 -93.5s86 -151.166 86 -266.499v-140h-213v154c0 94 -38.667 141 -116 141c-78 0 -117 -47 -117 -141v-774c0 -93.333 39 -140 117 -140
c77.333 0 116 46.667 116 140v205h213v-191c0 -115.333 -28.667 -204.166 -86 -266.499s-140.666 -93.5 -249.999 -93.5s-192.666 31.167 -249.999 93.5s-86 151.166 -86 266.499z" />
    <glyph glyph-name="afii10036" unicode="&#x422;" horiz-adv-x="729" 
d="M16 1229v205h697v-205h-236v-1229h-225v1229h-236z" />
    <glyph glyph-name="afii10037" unicode="&#x423;" horiz-adv-x="835" 
d="M16 1434l224.001 -0.000976562l122 -490l70 -336l53 334l103 492h235l-241 -1069c-11.333 -54.667 -24 -101.167 -38 -139.5s-32.333 -73.666 -55 -105.999s-50 -57.5 -82 -75.5s-71.167 -31.167 -117.5 -39.5s-100.5 -10.5 -162.5 -6.5v201
c61.333 -4 107.666 2 138.999 18s51.333 48.667 60 98l2 13z" />
    <glyph glyph-name="afii10038" unicode="&#x424;" horiz-adv-x="1193" 
d="M63 516v391c0 115.333 28.167 203.333 84.5 264s140.166 91 251.499 91h84v172h222v-172h83c111.333 0 195.166 -30.333 251.499 -91s84.5 -148.667 84.5 -264v-391c0 -115.333 -28.167 -203.166 -84.5 -263.499s-140.166 -90.5 -251.499 -90.5h-83v-162h-222v162h-84
c-111.333 0 -195.166 30.167 -251.499 90.5s-84.5 148.166 -84.5 263.499zM287 502c0 -96 37.333 -144.001 112 -144.001h84v705h-84c-37.333 0 -65.333 -11.167 -84 -33.5s-28 -58.166 -28 -107.499v-420zM705 357.999h83c75.333 0 113 48 113 144v420
c0 94 -37.667 141 -113 141h-83v-705z" />
    <glyph glyph-name="afii10039" unicode="&#x425;" horiz-adv-x="880" 
d="M31 0l252 737l-236 697h234l170 -529l174 529h209l-236 -697l252 -737h-238l-184 567l-186 -567h-211z" />
    <glyph glyph-name="afii10040" unicode="&#x426;" horiz-adv-x="931" 
d="M82 0v1434h225v-1229h256v1229h230v-1233h98v-394h-219v193h-590z" />
    <glyph glyph-name="afii10041" unicode="&#x427;" horiz-adv-x="849" 
d="M68 827l-0.00195312 607.001h225v-588c0 -46 12.333 -81 37 -105s56 -36 94 -36c36.667 0 65.334 12.667 86.001 38s31 61.666 31 108.999v582h225v-1434h-225v578c-23.333 -25.333 -53.166 -45 -89.499 -59s-70.833 -21 -103.5 -21c-90 0 -159.167 29.667 -207.5 89
s-72.5 139.333 -72.5 240z" />
    <glyph glyph-name="afii10042" unicode="&#x428;" horiz-adv-x="1228" 
d="M82 0v1434h225v-1229h195v1229h225v-1229h195v1229h225v-1434h-1065z" />
    <glyph glyph-name="afii10043" unicode="&#x429;" horiz-adv-x="1288" 
d="M82 0v1434h225v-1229h195v1229h225v-1229h195v1229h225v-1233h100v-394h-219v193h-946z" />
    <glyph glyph-name="afii10044" unicode="&#x42a;" horiz-adv-x="899" 
d="M16 1229v204.998h387v-539h107c111.333 0 195.166 -30.167 251.499 -90.5s84.5 -148.166 84.5 -263.499v-187c0 -115.333 -28.167 -203.166 -84.5 -263.499s-140.166 -90.5 -251.499 -90.5h-332v1229h-162zM403 204.998l107 0.00195312
c37.333 0 65.166 10.167 83.499 30.5s27.5 55.166 27.5 104.499v215c0 49.333 -9.16699 84.166 -27.5 104.499s-46.166 30.5 -83.499 30.5h-107v-485z" />
    <glyph glyph-name="afii10045" unicode="&#x42b;" horiz-adv-x="1185" 
d="M82 0v1434h225v-539h107c111.333 0 195.166 -30.167 251.499 -90.5s84.5 -148.166 84.5 -263.499v-187c0 -115.333 -28.167 -203.166 -84.5 -263.499s-140.166 -90.5 -251.499 -90.5h-332zM307 204.998l107 0.00195312c37.333 0 65 10.167 83 30.5s27 55.166 27 104.499
v215c0 49.333 -9 84.166 -27 104.499s-45.667 30.5 -83 30.5h-107v-485zM879 0v1434h225v-1434h-225z" />
    <glyph glyph-name="afii10046" unicode="&#x42c;" horiz-adv-x="802" 
d="M82 0v1434h225v-539h107c111.333 0 195.166 -30.167 251.499 -90.5s84.5 -148.166 84.5 -263.499v-187c0 -115.333 -28.167 -203.166 -84.5 -263.499s-140.166 -90.5 -251.499 -90.5h-332zM307 204.998l107 0.00195312c37.333 0 65 10.167 83 30.5s27 55.166 27 104.499
v215c0 49.333 -9 84.166 -27 104.499s-45.667 30.5 -83 30.5h-107v-485z" />
    <glyph glyph-name="afii10047" unicode="&#x42d;" horiz-adv-x="790" 
d="M53 344l-0.000976562 169.999h213v-184c0 -93.333 39 -140 117 -140s117 46.667 117 140v309h-207v205h207v260c0 94 -39 141 -117 141s-117 -47 -117 -141v-135h-209v121c0 116 28 205 84 267s138.667 93 248 93s192.666 -31.167 249.999 -93.5s86 -151.166 86 -266.499
v-746c0 -115.333 -28.667 -204.166 -86 -266.499s-140.666 -93.5 -249.999 -93.5s-192.666 31.167 -249.999 93.5s-86 151.166 -86 266.499z" />
    <glyph glyph-name="afii10048" unicode="&#x42e;" horiz-adv-x="1226" 
d="M82 0v1434h225v-615h168v271c0 114.667 29.5 203.334 88.5 266.001s143.5 94 253.5 94s194.5 -31.333 253.5 -94s88.5 -151.334 88.5 -266.001v-746c0 -114.667 -29.5 -203.334 -88.5 -266.001s-143.5 -94 -253.5 -94s-194.5 31.333 -253.5 94
s-88.5 151.334 -88.5 266.001v270h-168v-614h-225zM700 330c0 -94.667 39 -142 117 -142s117 47.333 117 142v774c0 94 -39 141 -117 141s-117 -47 -117 -141v-774z" />
    <glyph glyph-name="afii10049" unicode="&#x42f;" horiz-adv-x="823" 
d="M41 0c16.667 38.667 25 96.667 25 174v221c0 79.333 11.333 144.333 34 195s61 87.334 115 110.001c-98 46 -147 143 -147 291v113c0 112 26.667 195 80 249s137.666 81 252.999 81h340v-1434h-225v584h-78c-51.333 0 -88.666 -14 -111.999 -42s-35 -75 -35 -141v-225
c0 -36.667 -1.16699 -66.834 -3.5 -90.501s-4.5 -39.667 -6.5 -48s-5.66699 -20.833 -11 -37.5h-229zM293 940c0 -55.333 11.332 -94.5 33.999 -117.5s56.334 -34.5 101.001 -34.5h88v441h-108c-40 0 -69.167 -11.833 -87.5 -35.5s-27.5 -61.167 -27.5 -112.5v-141z" />
    <glyph glyph-name="afii10065" unicode="&#x430;" horiz-adv-x="833" 
d="M23 0l229 1434h330l229 -1434h-227l-39 260h-277l-39 -260h-206zM297 455h217l-108 725z" />
    <glyph glyph-name="afii10066" unicode="&#x431;" horiz-adv-x="849" 
d="M84 0v1434h631v-205h-406v-367h131c112 0 196.667 -30.167 254 -90.5s86 -148.166 86 -263.499v-154c0 -115.333 -28.667 -203.166 -86 -263.499s-142 -90.5 -254 -90.5h-356zM309 204.998l131 -0.00195312c38 0 66.667 10.333 86 31s29 55.334 29 104.001v182
c0 48.667 -9.66699 83.334 -29 104.001s-48 31 -86 31h-131v-452z" />
    <glyph glyph-name="afii10067" unicode="&#x432;" horiz-adv-x="831" 
d="M82 0v1434h340c115.333 0 199.833 -27 253.5 -81s80.5 -137 80.5 -249v-51c0 -146.667 -48.667 -243 -146 -289c112 -43.333 168 -145.666 168 -306.999v-117c0 -110.667 -29 -195 -87 -253s-143 -87 -255 -87h-354zM307 204.999l129.001 0.00195312
c39.333 0 68.666 10.667 87.999 32s29 57.666 29 108.999v125c0 65.333 -11.167 110.666 -33.5 135.999s-59.5 38 -111.5 38h-101v-440zM307.001 850.001h87.999c44.667 0 78.334 11.5 101.001 34.5s34 61.833 34 116.5v80c0 51.333 -9 88.833 -27 112.5s-47 35.5 -87 35.5
h-109v-379z" />
    <glyph glyph-name="afii10068" unicode="&#x433;" horiz-adv-x="747" 
d="M84 0v1434h594v-205h-369v-1229h-225z" />
    <glyph glyph-name="afii10069" unicode="&#x434;" horiz-adv-x="999" 
d="M33 -193v394.001h88c18.667 23.333 32 49.166 40 77.499s13 64.5 15 108.5l51 1047h631v-1233h98v-394h-223v193h-481v-193h-219zM334 201.001l295 0.00195312v1028h-191l-41 -838c-2.66699 -52.667 -9 -92.834 -19 -120.501s-24.667 -50.834 -44 -69.501z" />
    <glyph glyph-name="afii10070" unicode="&#x435;" horiz-adv-x="753" 
d="M82 0v1434h614v-205h-389v-400h309v-204h-309v-420h389v-205h-614z" />
    <glyph glyph-name="afii10072" unicode="&#x436;" horiz-adv-x="1236" 
d="M16 0l279 846l-279 588h226l266 -580v580h223v-580l266 580h226l-277 -582l277 -852h-232l-205 635l-55 -109v-526h-223v526l-55 111l-205 -637h-232z" />
    <glyph glyph-name="afii10073" unicode="&#x437;" 
d="M70 344l-0.00195312 157.997h213v-172c0 -94.667 38.667 -142 116 -142c38.667 0 67.834 12 87.501 36s29.5 66 29.5 126v113c0 65.333 -11.5 112 -34.5 140s-60.5 42 -112.5 42h-56v205h68c44.667 0 78.334 11.5 101.001 34.5s34 61.833 34 116.5v80
c0 61.333 -9.83301 104 -29.5 128s-48.834 36 -87.501 36c-78.667 0 -118 -47 -118 -141v-117h-207v107c0 115.333 28 203.5 84 264.5s138.667 91.5 248 91.5s192.5 -31.167 249.5 -93.5s85.5 -151.166 85.5 -266.499v-37c0 -153.333 -52.333 -251.666 -157 -294.999
c104.667 -45.333 157 -145.666 157 -300.999v-113c0 -115.333 -28.5 -204.166 -85.5 -266.499s-140.167 -93.5 -249.5 -93.5s-192.666 31.167 -249.999 93.5s-86 151.166 -86 266.499z" />
    <glyph glyph-name="afii10074" unicode="&#x438;" horiz-adv-x="874" 
d="M82 0v1434h201v-908l82 316l184 592h248v-1434h-203v1010l-92 -353l-189 -657h-231z" />
    <glyph glyph-name="afii10075" unicode="&#x439;" horiz-adv-x="878" 
d="M82 0h231l189 657l92 353v-1010h203v1434h-248l-184 -592l-82 -316v908h-201v-1434zM207 1753h138.999c2.66699 -36 11.5 -60.667 26.5 -74s38.167 -20 69.5 -20c32.667 0 57.334 6.66699 74.001 20s26.334 38 29.001 74h137c0 -71.333 -20.333 -127 -61 -167
s-100.334 -60 -179.001 -60c-76.667 0 -134.5 19.833 -173.5 59.5s-59.5 95.5 -61.5 167.5z" />
    <glyph glyph-name="afii10076" unicode="&#x43a;" horiz-adv-x="847" 
d="M82 0v1434h225v-625l295 625h225l-313 -639l313 -795h-231l-219 571l-70 -131v-440h-225z" />
    <glyph glyph-name="afii10077" unicode="&#x43b;" horiz-adv-x="921" 
d="M18 -2v205.002c28 0 49.667 1.33301 65 4s29 9.16699 41 19.5s20.333 25.166 25 44.499s7.66699 45.666 9 78.999l37 1084h636v-1434h-229v1229h-196l-25 -867c-4 -130.667 -31.5 -224 -82.5 -280s-132.833 -84 -245.5 -84h-35z" />
    <glyph glyph-name="afii10078" unicode="&#x43c;" horiz-adv-x="1107" 
d="M80 0v1434h313l166 -1018l154 1018h313v-1434h-213v1028l-156 -1028h-213l-168 1014v-1014h-196z" />
    <glyph glyph-name="afii10079" unicode="&#x43d;" horiz-adv-x="874" 
d="M82 0v1434h225v-615h256v615h230v-1434h-230v614h-256v-614h-225z" />
    <glyph glyph-name="afii10080" unicode="&#x43e;" 
d="M63 344v746c0 114.667 29.667 203.334 89 266.001s144 94 254 94s194.5 -31.333 253.5 -94s88.5 -151.334 88.5 -266.001v-746c0 -114.667 -29.5 -203.334 -88.5 -266.001s-143.5 -94 -253.5 -94s-194.667 31.333 -254 94s-89 151.334 -89 266.001zM289 330
c0 -94.667 39 -142 117 -142c77.333 0 116 47.333 116 142v774c0 94 -38.667 141 -116 141c-78 0 -117 -47 -117 -141v-774z" />
    <glyph glyph-name="afii10081" unicode="&#x43f;" horiz-adv-x="874" 
d="M82 0v1434h711v-1434h-230v1229h-256v-1229h-225z" />
    <glyph glyph-name="afii10082" unicode="&#x440;" horiz-adv-x="772" 
d="M82 0v1434h332c111.333 0 195.166 -30.333 251.499 -91s84.5 -148.667 84.5 -264v-186c0 -115.333 -28.167 -203.166 -84.5 -263.499s-140.166 -90.5 -251.499 -90.5h-107v-539h-225zM307 742.999l107 0.000976562c37.333 0 65 10.333 83 31s27 55.667 27 105v215
c0 49.333 -9 84.166 -27 104.499s-45.667 30.5 -83 30.5h-107v-486z" />
    <glyph glyph-name="afii10083" unicode="&#x441;" horiz-adv-x="790" 
d="M63 344v746c0 115.333 28.667 204.166 86 266.499s140.666 93.5 249.999 93.5s192.666 -31.167 249.999 -93.5s86 -151.166 86 -266.499v-140h-213v154c0 94 -38.667 141 -116 141c-78 0 -117 -47 -117 -141v-774c0 -93.333 39 -140 117 -140
c77.333 0 116 46.667 116 140v205h213v-191c0 -115.333 -28.667 -204.166 -86 -266.499s-140.666 -93.5 -249.999 -93.5s-192.666 31.167 -249.999 93.5s-86 151.166 -86 266.499z" />
    <glyph glyph-name="afii10084" unicode="&#x442;" horiz-adv-x="729" 
d="M16 1229v205h697v-205h-236v-1229h-225v1229h-236z" />
    <glyph glyph-name="afii10085" unicode="&#x443;" horiz-adv-x="835" 
d="M16 1434l224.001 -0.000976562l122 -490l70 -336l53 334l103 492h235l-241 -1069c-11.333 -54.667 -24 -101.167 -38 -139.5s-32.333 -73.666 -55 -105.999s-50 -57.5 -82 -75.5s-71.167 -31.167 -117.5 -39.5s-100.5 -10.5 -162.5 -6.5v201
c61.333 -4 107.666 2 138.999 18s51.333 48.667 60 98l2 13z" />
    <glyph glyph-name="afii10086" unicode="&#x444;" horiz-adv-x="1193" 
d="M63 516v391c0 115.333 28.167 203.333 84.5 264s140.166 91 251.499 91h84v172h222v-172h83c111.333 0 195.166 -30.333 251.499 -91s84.5 -148.667 84.5 -264v-391c0 -115.333 -28.167 -203.166 -84.5 -263.499s-140.166 -90.5 -251.499 -90.5h-83v-162h-222v162h-84
c-111.333 0 -195.166 30.167 -251.499 90.5s-84.5 148.166 -84.5 263.499zM287 502c0 -96 37.333 -144.001 112 -144.001h84v705h-84c-37.333 0 -65.333 -11.167 -84 -33.5s-28 -58.166 -28 -107.499v-420zM705 357.999h83c75.333 0 113 48 113 144v420
c0 94 -37.667 141 -113 141h-83v-705z" />
    <glyph glyph-name="afii10087" unicode="&#x445;" horiz-adv-x="880" 
d="M31 0l252 737l-236 697h234l170 -529l174 529h209l-236 -697l252 -737h-238l-184 567l-186 -567h-211z" />
    <glyph glyph-name="afii10088" unicode="&#x446;" horiz-adv-x="931" 
d="M82 0v1434h225v-1229h256v1229h230v-1233h98v-394h-219v193h-590z" />
    <glyph glyph-name="afii10089" unicode="&#x447;" horiz-adv-x="849" 
d="M68 827l-0.00195312 607.001h225v-588c0 -46 12.333 -81 37 -105s56 -36 94 -36c36.667 0 65.334 12.667 86.001 38s31 61.666 31 108.999v582h225v-1434h-225v578c-23.333 -25.333 -53.166 -45 -89.499 -59s-70.833 -21 -103.5 -21c-90 0 -159.167 29.667 -207.5 89
s-72.5 139.333 -72.5 240z" />
    <glyph glyph-name="afii10090" unicode="&#x448;" horiz-adv-x="1228" 
d="M82 0v1434h225v-1229h195v1229h225v-1229h195v1229h225v-1434h-1065z" />
    <glyph glyph-name="afii10091" unicode="&#x449;" horiz-adv-x="1288" 
d="M82 0v1434h225v-1229h195v1229h225v-1229h195v1229h225v-1233h100v-394h-219v193h-946z" />
    <glyph glyph-name="afii10092" unicode="&#x44a;" horiz-adv-x="899" 
d="M16 1229v204.998h387v-539h107c111.333 0 195.166 -30.167 251.499 -90.5s84.5 -148.166 84.5 -263.499v-187c0 -115.333 -28.167 -203.166 -84.5 -263.499s-140.166 -90.5 -251.499 -90.5h-332v1229h-162zM403 204.998l107 0.00195312
c37.333 0 65.166 10.167 83.499 30.5s27.5 55.166 27.5 104.499v215c0 49.333 -9.16699 84.166 -27.5 104.499s-46.166 30.5 -83.499 30.5h-107v-485z" />
    <glyph glyph-name="afii10093" unicode="&#x44b;" horiz-adv-x="1185" 
d="M82 0v1434h225v-539h107c111.333 0 195.166 -30.167 251.499 -90.5s84.5 -148.166 84.5 -263.499v-187c0 -115.333 -28.167 -203.166 -84.5 -263.499s-140.166 -90.5 -251.499 -90.5h-332zM307 204.998l107 0.00195312c37.333 0 65 10.167 83 30.5s27 55.166 27 104.499
v215c0 49.333 -9 84.166 -27 104.499s-45.667 30.5 -83 30.5h-107v-485zM879 0v1434h225v-1434h-225z" />
    <glyph glyph-name="afii10094" unicode="&#x44c;" horiz-adv-x="802" 
d="M82 0v1434h225v-539h107c111.333 0 195.166 -30.167 251.499 -90.5s84.5 -148.166 84.5 -263.499v-187c0 -115.333 -28.167 -203.166 -84.5 -263.499s-140.166 -90.5 -251.499 -90.5h-332zM307 204.998l107 0.00195312c37.333 0 65 10.167 83 30.5s27 55.166 27 104.499
v215c0 49.333 -9 84.166 -27 104.499s-45.667 30.5 -83 30.5h-107v-485z" />
    <glyph glyph-name="afii10095" unicode="&#x44d;" horiz-adv-x="790" 
d="M53 344l-0.000976562 169.999h213v-184c0 -93.333 39 -140 117 -140s117 46.667 117 140v309h-207v205h207v260c0 94 -39 141 -117 141s-117 -47 -117 -141v-135h-209v121c0 116 28 205 84 267s138.667 93 248 93s192.666 -31.167 249.999 -93.5s86 -151.166 86 -266.499
v-746c0 -115.333 -28.667 -204.166 -86 -266.499s-140.666 -93.5 -249.999 -93.5s-192.666 31.167 -249.999 93.5s-86 151.166 -86 266.499z" />
    <glyph glyph-name="afii10096" unicode="&#x44e;" horiz-adv-x="1226" 
d="M82 0v1434h225v-615h168v271c0 114.667 29.5 203.334 88.5 266.001s143.5 94 253.5 94s194.5 -31.333 253.5 -94s88.5 -151.334 88.5 -266.001v-746c0 -114.667 -29.5 -203.334 -88.5 -266.001s-143.5 -94 -253.5 -94s-194.5 31.333 -253.5 94
s-88.5 151.334 -88.5 266.001v270h-168v-614h-225zM700 330c0 -94.667 39 -142 117 -142s117 47.333 117 142v774c0 94 -39 141 -117 141s-117 -47 -117 -141v-774z" />
    <glyph glyph-name="afii10097" unicode="&#x44f;" horiz-adv-x="823" 
d="M41 0c16.667 38.667 25 96.667 25 174v221c0 79.333 11.333 144.333 34 195s61 87.334 115 110.001c-98 46 -147 143 -147 291v113c0 112 26.667 195 80 249s137.666 81 252.999 81h340v-1434h-225v584h-78c-51.333 0 -88.666 -14 -111.999 -42s-35 -75 -35 -141v-225
c0 -36.667 -1.16699 -66.834 -3.5 -90.501s-4.5 -39.667 -6.5 -48s-5.66699 -20.833 -11 -37.5h-229zM293 940c0 -55.333 11.332 -94.5 33.999 -117.5s56.334 -34.5 101.001 -34.5h88v441h-108c-40 0 -69.167 -11.833 -87.5 -35.5s-27.5 -61.167 -27.5 -112.5v-141z" />
    <glyph glyph-name="afii10071" unicode="&#x451;" horiz-adv-x="753" 
d="M82 0v1434h614v-205h-389v-400h309v-204h-309v-420h389v-205h-614zM133 1509v197h197v-197h-197zM444 1509v197h197v-197h-197z" />
    <glyph glyph-name="uni2000" unicode="&#x2000;" horiz-adv-x="915" 
 />
    <glyph glyph-name="uni2001" unicode="&#x2001;" horiz-adv-x="1831" 
 />
    <glyph glyph-name="uni2002" unicode="&#x2002;" horiz-adv-x="915" 
 />
    <glyph glyph-name="uni2003" unicode="&#x2003;" horiz-adv-x="1831" 
 />
    <glyph glyph-name="uni2004" unicode="&#x2004;" horiz-adv-x="610" 
 />
    <glyph glyph-name="uni2005" unicode="&#x2005;" horiz-adv-x="457" 
 />
    <glyph glyph-name="uni2006" unicode="&#x2006;" horiz-adv-x="305" 
 />
    <glyph glyph-name="uni2007" unicode="&#x2007;" horiz-adv-x="305" 
 />
    <glyph glyph-name="uni2008" unicode="&#x2008;" horiz-adv-x="228" 
 />
    <glyph glyph-name="uni2009" unicode="&#x2009;" horiz-adv-x="366" 
 />
    <glyph glyph-name="uni200A" unicode="&#x200a;" horiz-adv-x="101" 
 />
    <glyph glyph-name="uni2010" unicode="&#x2010;" horiz-adv-x="552" 
d="M72 614v205h409v-205h-409z" />
    <glyph glyph-name="uni2011" unicode="&#x2011;" horiz-adv-x="552" 
d="M72 614v205h409v-205h-409z" />
    <glyph glyph-name="figuredash" unicode="&#x2012;" horiz-adv-x="552" 
d="M72 614v205h409v-205h-409z" />
    <glyph glyph-name="endash" unicode="&#x2013;" horiz-adv-x="1024" 
d="M0 625v184h1024v-184h-1024z" />
    <glyph glyph-name="emdash" unicode="&#x2014;" horiz-adv-x="2048" 
d="M0 625v184h2048v-184h-2048z" />
    <glyph glyph-name="quoteleft" unicode="&#x2018;" horiz-adv-x="380" 
d="M82 1012v194l98 228h92l-59 -205h86v-217h-217z" />
    <glyph glyph-name="quoteright" unicode="&#x2019;" horiz-adv-x="380" 
d="M82 1217v217h217v-195l-98 -227h-92l59 205h-86z" />
    <glyph glyph-name="quotesinglbase" unicode="&#x201a;" horiz-adv-x="380" 
d="M82 0v217h217v-194l-98 -228h-92l59 205h-86z" />
    <glyph glyph-name="quotedblleft" unicode="&#x201c;" horiz-adv-x="679" 
d="M82 1012v194l98 228h92l-59 -205h86v-217h-217zM381 1012v194l98 228h92l-59 -205h86v-217h-217z" />
    <glyph glyph-name="quotedblright" unicode="&#x201d;" horiz-adv-x="679" 
d="M82 1217v217h217v-195l-98 -227h-92l59 205h-86zM381 1217v217h217v-195l-98 -227h-92l59 205h-86z" />
    <glyph glyph-name="quotedblbase" unicode="&#x201e;" horiz-adv-x="679" 
d="M82 0v217h217v-194l-98 -228h-92l59 205h-86zM381 0v217h217v-194l-98 -228h-92l59 205h-86z" />
    <glyph glyph-name="bullet" unicode="&#x2022;" 
d="M121 717c0 78.667 27.6689 145.667 83.002 201s122.666 83 201.999 83c78.667 0 145.667 -27.5 201 -82.5s83 -122.167 83 -201.5s-27.667 -146.666 -83 -201.999s-122.333 -83 -201 -83s-145.834 27.667 -201.501 83s-83.5 122.666 -83.5 201.999z" />
    <glyph glyph-name="ellipsis" unicode="&#x2026;" horiz-adv-x="978" 
d="M82 0v217h217v-217h-217zM381 0v217h217v-217h-217zM680 0v217h217v-217h-217z" />
    <glyph glyph-name="uni202F" unicode="&#x202f;" horiz-adv-x="366" 
 />
    <glyph glyph-name="guilsinglleft" unicode="&#x2039;" horiz-adv-x="401" 
d="M33 719l123 545h213l-121 -545l121 -578h-213z" />
    <glyph glyph-name="guilsinglright" unicode="&#x203a;" horiz-adv-x="401" 
d="M33 141l121 578l-121 545h213l123 -545l-123 -578h-213z" />
    <glyph glyph-name="uni205F" unicode="&#x205f;" horiz-adv-x="457" 
 />
    <glyph glyph-name="Euro" unicode="&#x20ac;" 
d="M39 553v113h57v112h-57v113h57v199c0 116 27.667 205 83 267s137.666 93 246.999 93s191.666 -31 246.999 -93s83 -151 83 -267v-105h-213v119c0 50 -9.16699 86 -27.5 108s-46.166 33 -83.499 33c-36.667 0 -64.167 -11 -82.5 -33s-27.5 -58 -27.5 -108v-213h315v-113
h-315v-112h315v-113h-315v-223c0 -50 9 -85.833 27 -107.5s45.667 -32.5 83 -32.5s65.166 11 83.499 33s27.5 57.667 27.5 107v129h213v-115c0 -116 -27.667 -205 -83 -267s-137.666 -93 -246.999 -93s-191.666 31 -246.999 93s-83 151 -83 267v209h-57z" />
    <glyph glyph-name="trademark" unicode="&#x2122;" horiz-adv-x="1200" 
d="M20 1303v131h443v-131h-150v-598h-143v598h-150zM549 705v729h199l106 -512l96 512h199v-729h-135v518l-96 -518h-136l-108 514v-514h-125z" />
    <glyph glyph-name="uni25FC" unicode="&#x25fc;" horiz-adv-x="1433" 
d="M0 0v1434h1434v-1434h-1434z" />
    </font>
</defs>
</svg>
