<svg xmlns="http://www.w3.org/2000/svg">
<defs>
<font id="PTSerif-Regular" horiz-adv-x="533" >
  <font-face 
    font-family="PT Serif"
    font-weight="400"
    font-stretch="normal"
    units-per-em="1000"
    panose-1="2 10 6 3 4 5 5 2 2 4"
    ascent="770"
    descent="-230"
    x-height="500"
    cap-height="700.002"
    bbox="-151 -272 978 893.334"
    underline-thickness="50"
    underline-position="-50"
    unicode-range="U+000D-U+04FD"
  />
<missing-glyph horiz-adv-x="709" 
d="M50 700h650v-700h-650v700zM570 650l-195 -217l-195 217l-50 -50l197 -220l-197 -220l50 -50l195 217l195 -217l50 50l-198 220l198 220zM162 68h-35v-7h13v-35h9v35h13v7zM271 58h-1.99805c-0.666992 0 -1.33398 0.333008 -2.00098 1
c-2.66699 0 -5.66699 -1.66699 -9 -5v4h-7v-32h8v20c2 3.33301 4.33301 5 7 5c1.33301 0 2.66602 -0.333008 3.99902 -1zM276.002 65c0 -3.33301 1.33301 -5 4 -5c3.33301 0 5 1.33301 5 4c0 3.33301 -1.66699 5 -5 5c-2.66699 0 -4 -1.33301 -4 -4zM276.002 26h9v32h-9v-32
zM291.002 51h5v-25h8v25h8v7h-8c0 1.33301 0.333008 2.33301 1 3s1.66699 1 3 1h3h3l1 6c0 0.666992 -1.33301 1 -4 1h-5h-4c-0.666992 0 -1.66699 -0.5 -3 -1.5s-2 -1.83301 -2 -2.5c-0.666992 -1.33301 -1 -3 -1 -5v-2h-5v-7zM331.002 45
c0 -16.667 7.66797 -25 23.001 -25c7.33301 0 13.166 2 17.499 6s6.5 10.333 6.5 19c0 15.333 -8 23 -24 23c-6.66699 0 -12.167 -2 -16.5 -6s-6.5 -9.66699 -6.5 -17zM338.003 45c0 11.333 5.33301 17 16 17c11.333 0 17 -5.66699 17 -17c0 -12 -5.66699 -18 -17 -18
c-10.667 0 -16 6 -16 18zM361.003 40c-1.33301 -0.666992 -2.66699 -1 -4 -1c-3.33301 0 -5 2 -5 6c0 2.66699 1.66699 4 5 4h3l3 5c-2.66699 1.33301 -5.66699 2 -9 2c-6.66699 0 -10 -3.66699 -10 -11c0 -8.66699 3.33301 -13 10 -13c3.33301 0 6.33301 0.666992 9 2z
M402.002 27h8.99902v14h5c4.66699 0 8.83398 1 12.501 3s5.5 5.66699 5.5 11c0 6.66699 -2 10.667 -6 12s-8.33301 2 -13 2h-13v-42zM416.001 62c6 0 9 -2 9 -6s-0.833008 -6.16699 -2.5 -6.5s-4.16699 -0.5 -7.5 -0.5h-4v13h5zM440.001 51

<glyph glyph-name="fi" unicode="fi" horiz-adv-x="600" 
d="M562 0l-221.996 -0.00195312v25c20.667 11.333 42.667 19.333 66 24v401h-209v-401c17.333 -1.33301 33.833 -4.16602 49.5 -8.49902s30.5 -9.5 44.5 -15.5v-25h-250v25c20.667 12 42.667 20 66 24v401h-76v26c23.333 14.667 48.666 25.667 75.999 33v35
c0 41.333 6.66699 75.5 20 102.5s30.666 48.333 51.999 64s45.833 26.5 73.5 32.5s55.5 9 83.5 9c13.333 0 28.166 -0.833008 44.499 -2.5s32.333 -4 48 -7s30 -6.5 43 -10.5s22.833 -8.33301 29.5 -13c-2 -22 -5 -39.333 -9 -52l-13 -41h-30l-83 86
c-19.333 0 -38.833 -2 -58.5 -6s-37.834 -11.667 -54.501 -23s-30.167 -27.666 -40.5 -48.999s-15.5 -49.333 -15.5 -84v-50h105c14 0 28.5 0.166992 43.5 0.5s30 1 45 2s29.333 2.33301 43 4s26.167 3.5 37.5 5.5h25v-463c13.333 -3.33301 25.333 -6.83301 36 -10.5
s20.667 -8.16699 30 -13.5v-25z" />
    <glyph glyph-name="fl" unicode="fl" horiz-adv-x="612" 
d="M409 682c-14.667 8 -30 14.834 -46 20.501s-31.667 8.5 -47 8.5c-18 0 -34.333 -2 -49 -6s-27.167 -11.833 -37.5 -23.5s-18.333 -28 -24 -49s-8.5 -48.833 -8.5 -83.5v-49h115v-50h-115v-401c34.667 -4 66 -12 94 -24v-25h-250v25c20.667 12 42.667 20 66 24v401h-76v26
c23.333 14.667 48.666 25.667 75.999 33v35c0 41.333 5 75.5 15 102.5s23.833 48.333 41.5 64s38.334 26.5 62.001 32.5s49.5 9 77.5 9c6 0 13.167 -0.5 21.5 -1.5s16.833 -2.5 25.5 -4.5s17 -4.16699 25 -6.5s15 -4.5 21 -6.5l38 11c13.333 4 26.666 6.66699 39.999 8h25
v-703c11.333 -2.66699 23.833 -6 37.5 -10s26.167 -8.66699 37.5 -14v-25h-230v25c10.667 5.33301 21.334 10.166 32.001 14.499s21.667 7.5 33 9.5v633z" />
    <glyph glyph-name=".notdef" horiz-adv-x="709" 
d="M50 700h650v-700h-650v700zM570 650l-195 -217l-195 217l-50 -50l197 -220l-197 -220l50 -50l195 217l195 -217l50 50l-198 220l198 220zM162 68h-35v-7h13v-35h9v35h13v7zM271 58h-1.99805c-0.666992 0 -1.33398 0.333008 -2.00098 1
c-2.66699 0 -5.66699 -1.66699 -9 -5v4h-7v-32h8v20c2 3.33301 4.33301 5 7 5c1.33301 0 2.66602 -0.333008 3.99902 -1zM276.002 65c0 -3.33301 1.33301 -5 4 -5c3.33301 0 5 1.33301 5 4c0 3.33301 -1.66699 5 -5 5c-2.66699 0 -4 -1.33301 -4 -4zM276.002 26h9v32h-9v-32
zM291.002 51h5v-25h8v25h8v7h-8c0 1.33301 0.333008 2.33301 1 3s1.66699 1 3 1h3h3l1 6c0 0.666992 -1.33301 1 -4 1h-5h-4c-0.666992 0 -1.66699 -0.5 -3 -1.5s-2 -1.83301 -2 -2.5c-0.666992 -1.33301 -1 -3 -1 -5v-2h-5v-7zM331.002 45
c0 -16.667 7.66797 -25 23.001 -25c7.33301 0 13.166 2 17.499 6s6.5 10.333 6.5 19c0 15.333 -8 23 -24 23c-6.66699 0 -12.167 -2 -16.5 -6s-6.5 -9.66699 -6.5 -17zM338.003 45c0 11.333 5.33301 17 16 17c11.333 0 17 -5.66699 17 -17c0 -12 -5.66699 -18 -17 -18
c-10.667 0 -16 6 -16 18zM361.003 40c-1.33301 -0.666992 -2.66699 -1 -4 -1c-3.33301 0 -5 2 -5 6c0 2.66699 1.66699 4 5 4h3l3 5c-2.66699 1.33301 -5.66699 2 -9 2c-6.66699 0 -10 -3.66699 -10 -11c0 -8.66699 3.33301 -13 10 -13c3.33301 0 6.33301 0.666992 9 2z
M402.002 27h8.99902v14h5c4.66699 0 8.83398 1 12.501 3s5.5 5.66699 5.5 11c0 6.66699 -2 10.667 -6 12s-8.33301 2 -13 2h-13v-42zM416.001 62c6 0 9 -2 9 -6s-0.833008 -6.16699 -2.5 -6.5s-4.16699 -0.5 -7.5 -0.5h-4v13h5zM440.001 51
c2 0.666992 3.83398 1.16602 5.50098 1.49902s3.5 0.5 5.5 0.5c3.33301 0 5 -1.66699 5 -5v-2c-0.666992 0 -1.33398 0.166992 -2.00098 0.5s-1.66699 0.5 -3 0.5c-10 0 -15 -4 -15 -12c0 -6 3.33301 -9 10 -9c4.66699 0 8 2 10 6l3 -5h7
c-0.666992 0.666992 -1 3.33398 -1 8.00098v13c0 8 -4 12 -12 12c-3.33301 0 -6.33301 -0.5 -9 -1.5s-4.66699 -1.83301 -6 -2.5zM450.002 32.999c-3.33301 0 -5.00098 1.66699 -5.00098 5c0 2.66699 2 4 6 4c1.33301 0 2.33301 -0.166992 3 -0.5s1.33398 -0.5 2.00098 -0.5
v-3c-0.666992 -3.33301 -2.66699 -5 -6 -5zM494.001 58.999c-1.33301 0.666992 -3.00098 1 -5.00098 1c-3.33301 0 -5.66602 -2 -6.99902 -6h-1l-1 5h-7v-32h9v20c0 3.33301 2.33301 5 7 5c0.666992 0 1 -0.166992 1 -0.5s0.333008 -0.5 1 -0.5h1zM499 50.999
c6.66699 1.33301 10.333 1.99902 11 1.99902c4 0 6 -1.66699 6 -5v-2c-1.33301 0 -2.33301 0.166992 -3 0.5s-1.66699 0.5 -3 0.5c-10 0 -15 -4 -15 -12c0 -6 3.33301 -9 10 -9c5.33301 0 9 2 11 6h1l1 -5h7c-0.666992 0.666992 -1 3.33398 -1 8.00098v13c0 8 -4 12 -12 12
c-3.33301 0 -6 -0.5 -8 -1.5s-4 -1.83301 -6 -2.5zM508.999 32.998c-3.33301 0 -5 1.66699 -5 5c0 2.66699 2 4 6 4c1.33301 0 2.33301 -0.166992 3 -0.5s1.66699 -0.5 3 -0.5v-3c-2 -3.33301 -4.33301 -5 -7 -5zM556.999 68.998h-36v-7h14v-35h8v35h14v7zM566.999 58.998
h-10.001l14 -32c-1.33301 -3.33301 -3 -5 -5 -5l-2 1l-2 -7c0.666992 -0.666992 2.66699 -1 6 -1c4.66699 0 8.33398 5 11.001 15l12 29h-9l-6 -18v-6h-1l-1 6zM594.998 14.998h9v13c1.33301 -1.33301 3.33301 -2 6 -2c10.667 0 16 6 16 18c0 10.667 -4.33301 16 -13 16
c-4 0 -7.33301 -1.66699 -10 -5h-2l-1 4h-5v-44zM610.998 52.998c4 0 5.99902 -3 5.99902 -9c0 -7.33301 -3 -11 -9 -11c-1.33301 0 -2.66602 0.666992 -3.99902 2v12c0 4 2.33301 6 7 6zM655.997 34.998c-1.33301 -1.33301 -4 -2 -8 -2c-5.33301 0 -8 2.33301 -8 7h21v7
c0 8.66699 -4.66699 13 -14 13c-10.667 0 -16 -6 -16 -18c0 -10.667 5.33301 -16 16 -16c5.33301 0 9.33301 1.33301 12 4zM646.997 52.998c4.66699 0 6.66699 -2.33301 6 -7h-13c0 4.66699 2.33301 7 7 7zM91.9971 26.998h8.99902v14h5c4.66699 0 8.83398 1 12.501 3
s5.5 5.66699 5.5 11c0 6.66699 -2 10.667 -6 12s-8.33301 2 -13 2h-13v-42zM105.996 61.998c6 0 9 -2 9 -6s-0.833008 -6.16699 -2.5 -6.5s-4.16699 -0.5 -7.5 -0.5h-4v13h5zM199.996 37.998c0 -3.33301 -2.66699 -4.99902 -8 -4.99902c-2 0 -3.66699 0.166992 -5 0.5
s-3.33301 1.16602 -6 2.49902l-3 -9c2.66699 -0.666992 5 -1.16699 7 -1.5s4.66699 -0.5 8 -0.5c10.667 0 16 4.66699 16 14c0 3.33301 -1.16699 5.83301 -3.5 7.5s-4.66602 3 -6.99902 4l-7 3c-2.33301 1 -3.5 2.5 -3.5 4.5s2.33301 3 7 3c2 0 3.83301 -0.166992 5.5 -0.5
s3.5 -0.833008 5.5 -1.5l2 8c-2.66699 0.666992 -5 1.16699 -7 1.5s-4 0.5 -6 0.5c-10.667 0 -16 -4.33301 -16 -13c0 -3.33301 1.16699 -5.83301 3.5 -7.5s4.66602 -3 6.99902 -4l7 -3c2.33301 -1 3.5 -2.16699 3.5 -3.5zM238.996 33.999c-1.33301 -1.33301 -4 -2 -8 -2
c-5.33301 0 -8 2.33301 -8 7h21v7c0 8.66699 -4.66699 13 -14 13c-10.667 0 -16 -6 -16 -18c0 -10.667 5.33301 -16 16 -16c5.33301 0 9.33301 1.33301 12 4zM229.996 51.999c4.66699 0 6.66699 -2.33301 6 -7h-13c0 4.66699 2.33301 7 7 7z" />
    <glyph glyph-name=".null" horiz-adv-x="0" 
 />
    <glyph glyph-name=".null" horiz-adv-x="0" 
 />
    <glyph glyph-name="uni000D" unicode="&#xd;" horiz-adv-x="243" 
 />
    <glyph glyph-name="space" unicode=" " horiz-adv-x="243" 
 />
    <glyph glyph-name="exclam" unicode="!" horiz-adv-x="327" 
d="M174 218l-32 176v296c14.667 7.33301 29.667 11 45 11s30.333 -3.66699 45 -11v-296l-32 -176h-26zM119 57c0 20 6.33301 36 19 48s29 18 49 18c20.667 0 37.334 -6 50.001 -18s19 -28 19 -48c0 -19.333 -6.33301 -35 -19 -47s-29.334 -18 -50.001 -18
c-20 0 -36.333 6 -49 18s-19 27.667 -19 47z" />
    <glyph glyph-name="quotedbl" unicode="&#x22;" horiz-adv-x="388" 
d="M211 723c4.66699 11.333 11.501 20.667 20.501 28s20.833 11 35.5 11c27.333 0 45.666 -13 54.999 -39l-42 -218h-26zM66.001 723.001c4.66699 11.333 11.501 20.667 20.501 28s20.833 11 35.5 11c27.333 0 45.666 -13 54.999 -39l-42 -218h-26z" />
    <glyph glyph-name="numbersign" unicode="#" 
d="M308 233h-142l-42 -175h-53l42 175h-80l14 46h76l36 150h-76l14 46h73l40 167h52l-39 -167h142l40 167h52l-40 -167h80l-17 -46h-74l-36 -150h77l-17 -46h-70l-42 -175h-52zM176 279h142l36 150h-142z" />
    <glyph glyph-name="dollar" unicode="$" 
d="M239 -12c-20 0 -39.333 1.49707 -58 4.49707s-35.834 7 -51.501 12s-29.667 10.5 -42 16.5s-21.833 12 -28.5 18c0.666992 6.66699 1.33398 15.5 2.00098 26.5s1.66699 22.167 3 33.5s2.83301 22.333 4.5 33s3.83398 19 6.50098 25h25l60 -97
c8.66699 -5.33301 20 -9.83301 34 -13.5s29 -5.83398 45 -6.50098v285c-2.66699 0 -4.66699 0.666992 -6 2l-32 15c-19.333 8.66699 -38 18.334 -56 29.001s-33.833 23.5 -47.5 38.5s-24.667 32.5 -33 52.5s-12.5 43.667 -12.5 71c0 24 4.66699 46.333 14 67
s22.166 39 38.499 55s36 28.833 59 38.5s48.167 15.5 75.5 17.5v49h52v-49c32 -2 59.833 -6.33301 83.5 -13s44.167 -14 61.5 -22c-0.666992 -21.333 -3.5 -39 -8.5 -53s-10.167 -26.333 -15.5 -37h-26l-50 68c-7.33301 1.33301 -14.333 2.33301 -21 3
s-14.667 1.33398 -24 2.00098v-267l29 -13c20.667 -10 40.834 -20.5 60.501 -31.5s37.167 -24 52.5 -39s27.666 -33.167 36.999 -54.5s14 -47.666 14 -78.999c0 -48.667 -17 -89.667 -51 -123s-81.333 -53.666 -142 -60.999v-61h-52v58zM394 167.997
c0 34.667 -10 62.168 -30 82.501s-44.333 37.166 -73 50.499v-256c30 8 54.667 22.5 74 43.5s29 47.5 29 79.5zM142 550.998c0 -18 2.49902 -33.834 7.49902 -47.501s11.833 -25.834 20.5 -36.501s18.834 -20.167 30.501 -28.5s24.5 -16.166 38.5 -23.499v244
c-30 -3.33301 -53.667 -15.166 -71 -35.499s-26 -44.5 -26 -72.5z" />
    <glyph glyph-name="percent" unicode="%" horiz-adv-x="807" 
d="M675 710l35 -31l-585 -686l-34 32zM52 542c0 26 4.33301 49.333 13 70s20.834 38.5 36.501 53.5s34 26.5 55 34.5s44.167 12 69.5 12s48.666 -3.5 69.999 -10.5s39.666 -17.5 54.999 -31.5s27.333 -31.667 36 -53s13 -46.333 13 -75c0 -26 -4.33301 -49.5 -13 -70.5
s-20.667 -38.833 -36 -53.5s-33.666 -26 -54.999 -34s-44.666 -12 -69.999 -12s-48.5 3.5 -69.5 10.5s-39.333 17.5 -55 31.5s-27.834 31.667 -36.501 53s-13 46.333 -13 75zM136 542c0 -40 7.66797 -72.167 23.001 -96.5s37.666 -36.5 66.999 -36.5c60 0 90 44.333 90 133
c0 88 -30 132 -90 132s-90 -44 -90 -132zM405.001 159c0 26 4.33301 49.333 13 70s20.834 38.5 36.501 53.5s34 26.5 55 34.5s44.167 12 69.5 12s48.666 -3.5 69.999 -10.5s39.666 -17.5 54.999 -31.5s27.333 -31.667 36 -53s13 -46.333 13 -75
c0 -26 -4.33301 -49.5 -13 -70.5s-20.667 -38.833 -36 -53.5s-33.666 -26 -54.999 -34s-44.666 -12 -69.999 -12s-48.5 3.5 -69.5 10.5s-39.333 17.5 -55 31.5s-27.834 31.667 -36.501 53s-13 46.333 -13 75zM489.001 159c0 -40 7.66797 -72.167 23.001 -96.5
s37.666 -36.5 66.999 -36.5c60 0 90 44.333 90 133c0 88 -30 132 -90 132s-90 -44 -90 -132z" />
    <glyph glyph-name="ampersand" unicode="&#x26;" horiz-adv-x="869" 
d="M540 123c-20 18 -41.832 39.168 -65.499 63.501s-46.5 49.166 -68.5 74.499l-61 73c-18.667 23.333 -33.334 42.666 -44.001 57.999c-28.667 -28 -49.334 -55.167 -62.001 -81.5s-19 -57.166 -19 -92.499c0 -25.333 4.16699 -48.833 12.5 -70.5s19.833 -40.5 34.5 -56.5
s32.334 -28.5 53.001 -37.5s43 -13.5 67 -13.5c30 0 58 6.83301 84 20.5s49 34.5 69 62.5zM282.001 583.001c0 -12 2.33301 -24.834 7 -38.501s10.834 -27.167 18.501 -40.5s16 -26.333 25 -39s17.833 -24 26.5 -34c24 20 43.5 43.167 58.5 69.5s20.833 57.5 17.5 93.5
c-1.33301 21.333 -8 39.333 -20 54s-31 22 -57 22c-14.667 0 -26.834 -2.5 -36.501 -7.5s-17.5 -11.667 -23.5 -20s-10.167 -17.666 -12.5 -27.999s-3.5 -20.833 -3.5 -31.5zM697.001 0l-53.002 34.501c-21.333 13.667 -44.666 32.834 -69.999 57.501
c-9.33301 -12.667 -21 -25.167 -35 -37.5s-30.5 -23.5 -49.5 -33.5s-40.167 -18 -63.5 -24s-48.666 -9 -75.999 -9c-35.333 0 -67.333 5.33301 -96 16s-53 25 -73 43s-35.5 38.667 -46.5 62s-16.5 47.666 -16.5 72.999c0 32.667 6 62.167 18 88.5s26.333 49.333 43 69
s34 36.334 52 50.001l45 33.5c-19.333 21.333 -35.666 46.333 -48.999 75s-20 55.334 -20 80.001c0 16.667 3.33301 33.167 10 49.5s16.5 30.666 29.5 42.999s29 22.333 48 30s40.5 11.5 64.5 11.5c44 0 79.5 -9.5 106.5 -28.5s40.5 -46.5 40.5 -82.5
c0 -22 -3.83301 -42.5 -11.5 -61.5s-17.5 -36.5 -29.5 -52.5s-25.5 -30.667 -40.5 -44s-29.833 -25.666 -44.5 -36.999c27.333 -34 59 -69 95 -105s74 -72 114 -108c5.33301 7.33301 12 19.666 20 36.999s15.5 37.666 22.5 60.999s12.667 48.833 17 76.5
s5.5 55.167 3.5 82.5c-20 4 -39.667 12 -59 24v26h203v-26c-18 -11.333 -40 -19.333 -66 -24c-6 -39.333 -13.667 -75 -23 -107s-19 -60.167 -29 -84.5s-19.5 -45 -28.5 -62s-16.167 -29.5 -21.5 -37.5c25.333 -20.667 50.166 -39.834 74.499 -57.501
s51.5 -35.167 81.5 -52.5l55 -24v-25h-142z" />
    <glyph glyph-name="quotesingle" unicode="'" horiz-adv-x="243" 
d="M66 723c4.66699 11.333 11.501 20.667 20.501 28s20.833 11 35.5 11c27.333 0 45.666 -13 54.999 -39l-42 -218h-26z" />
    <glyph glyph-name="parenleft" unicode="(" horiz-adv-x="343" 
d="M300 -210c-34 24.667 -65.666 51.666 -94.999 80.999s-54.833 62.333 -76.5 99s-38.667 77.334 -51 122.001s-18.5 95 -18.5 151c0 54.667 6.33301 104 19 148s30 84.333 52 121s47.833 70.5 77.5 101.5s61.5 60.5 95.5 88.5l21 -18c-26.667 -28.667 -51 -58 -73 -88
s-40.833 -62.667 -56.5 -98s-27.834 -73.833 -36.501 -115.5s-13 -88.167 -13 -139.5c0 -50 4.66699 -96.167 14 -138.5s22.166 -81.333 38.499 -117s35.333 -68.167 57 -97.5s44.834 -56 69.501 -80z" />
    <glyph glyph-name="parenright" unicode=")" horiz-adv-x="343" 
d="M19 -190c24.667 24 47.834 51.168 69.501 81.501s40.5 64 56.5 101s28.667 77.167 38 120.5s14 90 14 140c0 51.333 -4.33301 97.333 -13 138s-20.667 78 -36 112s-34 65.667 -56 95s-46.333 58 -73 86l21 18c34 -26 65.833 -53.667 95.5 -83s55.5 -62 77.5 -98
s39.333 -76 52 -120s19 -93.333 19 -148c0 -55.333 -6 -105.833 -18 -151.5s-28.667 -87.334 -50 -125.001s-46.833 -72 -76.5 -103s-61.834 -58.833 -96.501 -83.5z" />
    <glyph glyph-name="asterisk" unicode="*" horiz-adv-x="465" 
d="M62 616c-2 4.66699 -2.33301 10.502 -1 17.502s4 14 8 21s8.83301 13.167 14.5 18.5s11.5 8.66602 17.5 9.99902l100 -87c0 -5.33301 -1 -10.333 -3 -15s-5.66699 -8.33398 -11 -11.001zM100 444.002c-5.33301 0.666992 -10.667 3.50098 -16 8.50098s-10 11 -14 18
s-7 14.167 -9 21.5s-2 13.666 0 18.999l125 43c10 -5.33301 15 -13.333 15 -24zM270.999 389.003c-3.33301 -4 -8.50098 -7 -15.501 -9s-14.5 -3 -22.5 -3s-15.5 1 -22.5 3s-12.167 4.66699 -15.5 8l23 130c10.667 5.33301 21.334 5.33301 32.001 0zM401.998 511.003
c2.66699 -4.66699 3.16699 -10.667 1.5 -18s-4.5 -14.5 -8.5 -21.5s-8.66699 -13.167 -14 -18.5s-11 -8.33301 -17 -9l-98 84c0 6 1.16699 10.833 3.5 14.5s5.5 7.16699 9.5 10.5zM365.998 683.003c5.33301 -0.666992 10.666 -3.50098 15.999 -8.50098s9.83301 -11 13.5 -18
s6.33398 -14.167 8.00098 -21.5s1.5 -14 -0.5 -20l-124 -47c-9.33301 6.66699 -14 15.334 -14 26.001zM193.998 737.002c2.66699 4 7.50098 7.16699 14.501 9.5s14.5 3.5 22.5 3.5s15.667 -1.16699 23 -3.5s12.666 -5.5 15.999 -9.5l-22 -130
c-10 -6.66699 -20.333 -6.66699 -31 0z" />
    <glyph glyph-name="plus" unicode="+" 
d="M42 370h198v210h53v-210h198v-53h-198v-215h-53v215h-198v53z" />
    <glyph glyph-name="comma" unicode="," horiz-adv-x="283" 
d="M51 -149c12.667 4.66699 24.6699 11.833 36.0029 21.5s21.166 20.5 29.499 32.5s14.666 25.167 18.999 39.5s5.83301 28.5 4.5 42.5c-8 7.33301 -18.667 14.666 -32 21.999s-25 12.666 -35 15.999c-3.33301 12.667 -3.5 25 -0.5 37s7.5 22.667 13.5 32
s12.833 16.833 20.5 22.5s15.167 8.83398 22.5 9.50098c23.333 -3.33301 43.833 -13.666 61.5 -30.999s26.5 -43.333 26.5 -78c0 -18.667 -3.33301 -38.167 -10 -58.5s-16.334 -39.5 -29.001 -57.5s-28 -34.167 -46 -48.5s-38.333 -24.833 -61 -31.5z" />
    <glyph glyph-name="hyphen" unicode="-" horiz-adv-x="425" 
d="M71 313h282v-63h-282v63z" />
    <glyph glyph-name="period" unicode="." horiz-adv-x="279" 
d="M71 57c0 20 6.33301 36 19 48s29 18 49 18c20.667 0 37.334 -6 50.001 -18s19 -28 19 -48c0 -19.333 -6.33301 -35 -19 -47s-29.334 -18 -50.001 -18c-20 0 -36.333 6 -49 18s-19 27.667 -19 47z" />
    <glyph glyph-name="slash" unicode="/" horiz-adv-x="344" 
d="M327 712l42 -18l-365 -824l-41 19z" />
    <glyph glyph-name="zero" unicode="0" 
d="M35 350c0 120 20.001 210.333 60.001 271s97.333 91 172 91c80.667 0 139.667 -29.833 177 -89.5s56 -150.5 56 -272.5c0 -120 -20.167 -210.333 -60.5 -271s-99.833 -91 -178.5 -91c-40.667 0 -75.334 8.16699 -104.001 24.5s-52 40 -70 71s-31.167 68.833 -39.5 113.5
s-12.5 95.667 -12.5 153zM131.001 350c0 -48 2.33594 -91.6689 7.00293 -131.002s12.167 -73.166 22.5 -101.499s23.666 -50.166 39.999 -65.499s36.166 -23 59.499 -23c52.667 0 89.834 26 111.501 78s32.5 133 32.5 243c0 48 -2 91.667 -6 131s-11.333 73 -22 101
s-24.834 49.667 -42.501 65s-39.834 23 -66.501 23c-50 0 -85.167 -25.833 -105.5 -77.5s-30.5 -132.5 -30.5 -242.5z" />
    <glyph glyph-name="one" unicode="1" 
d="M425 0h-292.003v29c16.667 7.33301 33.5 13.833 50.5 19.5s34.167 10.5 51.5 14.5v491l4 59c-18.667 -7.33301 -38 -12.5 -58 -15.5s-40.667 -4.16699 -62 -3.5l-5 24c30.667 10 62.334 22.5 95.001 37.5s63 33.833 91 56.5h25v-649
c16.667 -4 33.334 -8.83301 50.001 -14.5s33.334 -12.167 50.001 -19.5v-29z" />
    <glyph glyph-name="two" unicode="2" 
d="M133 505l-24.9971 0.000976562c-7.33301 19.333 -14.833 42 -22.5 68s-14.167 50.667 -19.5 74c23.333 20 51.333 35.833 84 47.5s68 17.5 106 17.5c33.333 0 62 -4.66699 86 -14s43.833 -22 59.5 -38s27.167 -34.5 34.5 -55.5s11 -42.833 11 -65.5
c0 -37.333 -8.66699 -75.666 -26 -114.999s-38.833 -77.5 -64.5 -114.5s-53.5 -71.833 -83.5 -104.5s-57.667 -61.334 -83 -86.001l-42 -39v-4l56 6h172l49 112h25c1.33301 -14.667 2.66602 -30.667 3.99902 -48s2.5 -34.833 3.5 -52.5s1.83301 -34.667 2.5 -51
s1 -30.5 1 -42.5h-413v32l53.5 56c21 22 42.833 46.333 65.5 73s45.167 55 67.5 85s42.166 60.5 59.499 91.5s31.5 61.833 42.5 92.5s16.5 60 16.5 88c0 19.333 -2.5 37.666 -7.5 54.999s-12.5 32.5 -22.5 45.5s-22.167 23.167 -36.5 30.5s-30.833 11 -49.5 11
c-14 0 -26.333 -1 -37 -3s-22.334 -5 -35.001 -9z" />
    <glyph glyph-name="three" unicode="3" 
d="M256 35c18.667 0 35.999 4.16797 51.999 12.501s30 19.666 42 33.999s21.5 30.833 28.5 49.5s10.5 38.334 10.5 59.001c0 24.667 -3.83301 46.334 -11.5 65.001s-18.167 34.167 -31.5 46.5s-28.833 21.666 -46.5 27.999s-36.834 9.5 -57.501 9.5h-65v27l168 225l34 35v4
l-54 -6h-169l-39 -102h-25c-2.66699 14 -5.16699 29 -7.5 45s-4.5 31.833 -6.5 47.5s-3.66699 30.834 -5 45.501s-2 28 -2 40h391v-31l-167 -223l-43 -44v-2l34 7c31.333 -1.33301 59.333 -7.33301 84 -18s45.5 -24.834 62.5 -42.501s30 -38.334 39 -62.001
s13.5 -49.5 13.5 -77.5c0 -33.333 -6.66699 -63.5 -20 -90.5s-31.166 -50 -53.499 -69s-48 -33.667 -77 -44s-59.5 -15.5 -91.5 -15.5c-15.333 0 -31.666 1.16699 -48.999 3.5s-34.333 5.83301 -51 10.5s-32.167 10 -46.5 16s-26.5 13 -36.5 21l28 90h20
c4 -4.66699 9.5 -10.667 16.5 -18l22 -23l22.5 -24l19 -21l26 -5c10.667 -2 24.667 -3 42 -3z" />
    <glyph glyph-name="four" unicode="4" 
d="M477 0h-260.001v29c32.667 11.333 63.334 19.333 92.001 24v140h-305v23l370 496h27v-467h127v-52h-127v-140c26 -5.33301 51.333 -13.333 76 -24v-29zM308.999 502l11 72h-3l-39 -72l-168 -231l-40 -33l71 7h168v257z" />
    <glyph glyph-name="five" unicode="5" 
d="M431 755l24.999 -0.00195312c-0.666992 -10 -1.5 -21.167 -2.5 -33.5s-2.5 -24.666 -4.5 -36.999l-6 -35.5c-2 -11.333 -4.33301 -20.666 -7 -27.999h-246l-24 -193h65c33.333 0 63.833 -4.5 91.5 -13.5s51.334 -22.333 71.001 -40s35 -39.167 46 -64.5
s16.5 -54.333 16.5 -87c0 -38.667 -6.66699 -72.667 -20 -102s-31 -53.833 -53 -73.5s-47 -34.5 -75 -44.5s-57 -15 -87 -15c-13.333 0 -27.666 1.16699 -42.999 3.5s-30.5 5.83301 -45.5 10.5s-29.167 10.167 -42.5 16.5s-24.666 13.166 -33.999 20.499l29 90h20l15 -18
l18.5 -23l19 -24c6.33301 -8 12.166 -15 17.499 -21c6.66699 -1.33301 12.834 -3 18.501 -5s14.5 -3 26.5 -3c22 0 42.167 4.33301 60.5 13s34.166 20.5 47.499 35.5s23.666 32.5 30.999 52.5s11 41.667 11 65c0 26.667 -5 49.834 -15 69.501s-23.667 35.667 -41 48
s-37.5 21.5 -60.5 27.5s-47.167 8.66699 -72.5 8l-71 -1l40 347h238z" />
    <glyph glyph-name="six" unicode="6" 
d="M502 211c0 -30.667 -5.33398 -59.502 -16.001 -86.502s-25.667 -50.667 -45 -71s-42.666 -36.333 -69.999 -48s-57.666 -17.5 -90.999 -17.5c-37.333 0 -70.333 6.5 -99 19.5s-52.834 31.167 -72.501 54.5s-34.5 51 -44.5 83s-15 67 -15 105
c0 62.667 10.333 120.167 31 172.5s48.167 98.666 82.5 138.999s73.666 73.833 117.999 100.5s90.5 45.334 138.5 56.001l11 -30c-35.333 -12.667 -68.833 -29.834 -100.5 -51.501s-60 -47.167 -85 -76.5s-45.833 -62.166 -62.5 -98.499s-27 -75.5 -31 -117.5
c10.667 18 29.667 34.5 57 49.5s59 22.5 95 22.5c28.667 0 55.334 -4.66699 80.001 -14s45.667 -22.666 63 -39.999s31 -38.666 41 -63.999s15 -54.333 15 -87zM405.999 202.998c0 47.333 -11.5039 85.999 -34.5039 115.999s-55.167 45 -96.5 45
c-31.333 0 -58.166 -7.83301 -80.499 -23.5s-38.166 -33.167 -47.499 -52.5c-1.33301 -9.33301 -2 -20.333 -2 -33v-30c0 -21.333 2.83301 -43.166 8.5 -65.499s14.334 -42.833 26.001 -61.5s26.334 -34 44.001 -46s38.167 -18 61.5 -18
c21.333 0 39.666 4.83301 54.999 14.5s27.833 22.5 37.5 38.5s16.834 34.167 21.501 54.5s7 40.833 7 61.5z" />
    <glyph glyph-name="seven" unicode="7" 
d="M111 521h-25.001c-2.66699 14 -5.33398 29 -8.00098 45s-5 32 -7 48s-3.5 31.333 -4.5 46s-1.5 28 -1.5 40h414v-29c-33.333 -59.333 -61 -114 -83 -164s-40.833 -100.5 -56.5 -151.5s-29.167 -105 -40.5 -162s-22.666 -121.5 -33.999 -193.5h-100
c24.667 97.333 55.334 194 92.001 290s79 192.667 127 290l30 48l-52 -5h-212z" />
    <glyph glyph-name="eight" unicode="8" 
d="M49 157c0 22.667 4.00195 44.1699 12.002 64.5029s19.167 38.666 33.5 54.999s31.333 30.833 51 43.5s41.167 23 64.5 31c-18.667 10 -36.167 21 -52.5 33s-30.5 25.667 -42.5 41s-21.5 32.166 -28.5 50.499s-10.5 38.833 -10.5 61.5c0 26 4.66699 49.667 14 71
s22.5 39.666 39.5 54.999s37.667 27.333 62 36s51.5 13 81.5 13c58.667 0 104.334 -14.833 137.001 -44.5s49 -67.834 49 -114.501c0 -38.667 -12.667 -72.5 -38 -101.5s-58.333 -52.833 -99 -71.5c23.333 -12 45 -25.333 65 -40s37.167 -30.667 51.5 -48
s25.666 -36.166 33.999 -56.499s12.5 -42.166 12.5 -65.499c0 -24.667 -4.83301 -48 -14.5 -70s-24 -41.333 -43 -58s-42.333 -29.834 -70 -39.501s-59.5 -14.5 -95.5 -14.5c-36.667 0 -68.334 4.66699 -95.001 14s-48.834 21.833 -66.501 37.5s-30.667 33.667 -39 54
s-12.5 41.5 -12.5 63.5zM397.002 153.003c0 22.667 -4.49805 43.1699 -13.498 61.5029s-21 34.666 -36 48.999s-32.333 27.5 -52 39.5s-39.834 23 -60.501 33c-19.333 -11.333 -35.333 -24 -48 -38s-22.834 -28.5 -30.501 -43.5s-13.167 -29.833 -16.5 -44.5
s-5 -28.334 -5 -41.001c0 -16 2.5 -32.167 7.5 -48.5s12.833 -30.833 23.5 -43.5s24.5 -23 41.5 -31s37.833 -12 62.5 -12c20.667 0 39 3.5 55 10.5s29.333 16.167 40 27.5s18.667 24.166 24 38.499s8 28.5 8 42.5zM162.004 550.006
c0 -20.667 3.83203 -38.665 11.499 -53.998s17.834 -29.166 30.501 -41.499s27.167 -23.5 43.5 -33.5s33.166 -19.333 50.499 -28c28 22.667 47.667 45.334 59 68.001s17 47.667 17 75c0 41.333 -9.16699 73.166 -27.5 95.499s-43.5 33.5 -75.5 33.5
c-18 0 -33.667 -3.33301 -47 -10s-24.666 -15.334 -33.999 -26.001s-16.333 -22.834 -21 -36.501s-7 -27.834 -7 -42.501z" />
    <glyph glyph-name="nine" unicode="9" 
d="M47 487c0 32.667 4.83398 62.6709 14.501 90.0039s24 51 43 71s42.333 35.667 70 47s59.5 17 95.5 17c38.667 0 72.167 -6.5 100.5 -19.5s51.833 -31.167 70.5 -54.5s32.334 -51.833 41.001 -85.5s13 -70.834 13 -111.501c0 -62 -9 -119.333 -27 -172
s-42.5 -98.834 -73.5 -138.501s-67.667 -71.834 -110 -96.501s-87.833 -40 -136.5 -46l-18 29c39.333 10.667 74.166 26.334 104.499 47.001s56.333 45.167 78 73.5s39.167 59.666 52.5 93.999s22.666 70.5 27.999 108.5c-15.333 -16 -33.5 -29.5 -54.5 -40.5
s-49.5 -16.5 -85.5 -16.5c-30 0 -57.667 4.5 -83 13.5s-47 22.167 -65 39.5s-32.167 38.666 -42.5 63.999s-15.5 54.333 -15.5 87zM143.001 488.004c0 -19.333 3 -38.167 9 -56.5s14.667 -34.666 26 -48.999s25 -25.833 41 -34.5s34 -13 54 -13c32 0 58.5 5.5 79.5 16.5
s36.5 24.833 46.5 41.5c1.33301 8.66699 2 19.5 2 32.5v30.5c0 24 -2.5 48.5 -7.5 73.5s-12.833 47.5 -23.5 67.5s-24.667 36.333 -42 49s-38 19 -62 19c-40 0 -70.5 -15.833 -91.5 -47.5s-31.5 -74.834 -31.5 -129.501z" />
    <glyph glyph-name="colon" unicode=":" horiz-adv-x="327" 
d="M119 442c0 20 6.33301 36 19 48s29 18 49 18c20.667 0 37.334 -6 50.001 -18s19 -28 19 -48c0 -19.333 -6.33301 -35 -19 -47s-29.334 -18 -50.001 -18c-20 0 -36.333 6 -49 18s-19 27.667 -19 47zM119 57c0 20 6.33301 36 19 48s29 18 49 18
c20.667 0 37.334 -6 50.001 -18s19 -28 19 -48c0 -19.333 -6.33301 -35 -19 -47s-29.334 -18 -50.001 -18c-20 0 -36.333 6 -49 18s-19 27.667 -19 47z" />
    <glyph glyph-name="semicolon" unicode=";" horiz-adv-x="332" 
d="M124 442c0 20 6.33301 36 19 48s29 18 49 18c20.667 0 37.334 -6 50.001 -18s19 -28 19 -48c0 -19.333 -6.33301 -35 -19 -47s-29.334 -18 -50.001 -18c-20 0 -36.333 6 -49 18s-19 27.667 -19 47zM104 -149c12.667 4.66699 24.6699 11.833 36.0029 21.5
s21.166 20.5 29.499 32.5s14.666 25.167 18.999 39.5s5.83301 28.5 4.5 42.5c-8 7.33301 -18.667 14.666 -32 21.999s-25 12.666 -35 15.999c-3.33301 12.667 -3.5 25 -0.5 37s7.5 22.667 13.5 32s12.833 16.833 20.5 22.5s15.167 8.83398 22.5 9.50098
c23.333 -3.33301 43.833 -13.666 61.5 -30.999s26.5 -43.333 26.5 -78c0 -18.667 -3.33301 -38.167 -10 -58.5s-16.334 -39.5 -29.001 -57.5s-28 -34.167 -46 -48.5s-38.333 -24.833 -61 -31.5z" />
    <glyph glyph-name="less" unicode="&#x3c;" 
d="M44 324v31l385 235l25 -44l-250 -151l-86 -40l85 -31l265 -156l-40 -65z" />
    <glyph glyph-name="equal" unicode="=" 
d="M42 450h450v-53h-450v53zM42 290h450v-53h-450v53z" />
    <glyph glyph-name="greater" unicode="&#x3e;" 
d="M490 369v-31l-385 -235l-24 44l250 151l86 40l-85 31l-265 156l39 65z" />
    <glyph glyph-name="question" unicode="?" horiz-adv-x="473" 
d="M127 519l-25 0.00195312c-5.33301 18 -11.333 41.167 -18 69.5s-11.334 55.5 -14.001 81.5c25.333 15.333 52.5 26.166 81.5 32.499s64.5 9.5 106.5 9.5c30 0 56.167 -4.16699 78.5 -12.5s41 -19.666 56 -33.999s26.333 -31.5 34 -51.5s11.5 -41.667 11.5 -65
c0 -30 -5.5 -56.167 -16.5 -78.5s-24.667 -42.5 -41 -60.5s-34.166 -34.833 -53.499 -50.5s-37.333 -32.167 -54 -49.5s-30.5 -36.333 -41.5 -57s-16.5 -45 -16.5 -73h-20c-4.66699 19.333 -7 38.333 -7 57c0 24 3.83301 45.167 11.5 63.5s17.167 35.166 28.5 50.499
s23.666 29.833 36.999 43.5s25.666 27.667 36.999 42s20.833 29.666 28.5 45.999s11.5 35.166 11.5 56.499c0 14.667 -2.16699 29.167 -6.5 43.5s-11 27.333 -20 39s-20.5 21 -34.5 28s-31 10.5 -51 10.5c-21.333 0 -38.666 -1.66699 -51.999 -5
s-22.666 -7.66602 -27.999 -12.999zM143 57.002c0 20 6.33301 36 19 48s29 18 49 18c20.667 0 37.334 -6 50.001 -18s19 -28 19 -48c0 -19.333 -6.33301 -35 -19 -47s-29.334 -18 -50.001 -18c-20 0 -36.333 6 -49 18s-19 27.667 -19 47z" />
    <glyph glyph-name="at" unicode="@" horiz-adv-x="1064" 
d="M669 474c24.667 11.333 49.666 16.6709 74.999 16.0039l-51 -286c-4 -22 -6.83301 -42 -8.5 -60s-1.66699 -33.5 0 -46.5s5.33398 -23 11.001 -30s14.167 -10.5 25.5 -10.5c22 0 44.667 6.16699 68 18.5s44.833 30.166 64.5 53.499s35.834 51.666 48.501 84.999
s19 70.666 19 111.999c0 50.667 -9.66699 96.667 -29 138s-45.833 76.5 -79.5 105.5s-73 51.333 -118 67s-93.167 23.5 -144.5 23.5c-61.333 0 -116.5 -10.833 -165.5 -32.5s-90.833 -51.334 -125.5 -89.001s-61.334 -82 -80.001 -133s-28 -105.5 -28 -163.5
c0 -59.333 9.66699 -111.833 29 -157.5s46.5 -84.334 81.5 -116.001s76.667 -55.667 125 -72s101.5 -24.5 159.5 -24.5c19.333 0 41.333 2.33301 66 7s47 11.667 67 21l16 -44c-23.333 -13.333 -49 -22.666 -77 -27.999s-59 -8 -93 -8c-57.333 0 -112 8.66699 -164 26
s-97.833 43.333 -137.5 78s-71.167 78 -94.5 130s-35 112.667 -35 182c0 72.667 12 138.334 36 197.001s56.833 108.667 98.5 150s90.5 73.166 146.5 95.499s116 33.5 180 33.5c60 0 115.833 -8.83301 167.5 -26.5s96.5 -43 134.5 -76s67.667 -73.333 89 -121
s32 -101.834 32 -162.501c0 -43.333 -7.5 -84.333 -22.5 -123s-35.333 -72.667 -61 -102s-55.167 -52.666 -88.5 -69.999s-68.333 -26 -105 -26c-20 0 -37 3.16699 -51 9.5s-24.667 16.666 -32 30.999s-11.166 32.833 -11.499 55.5s3.16699 50 10.5 82h-4
c-7.33301 -21.333 -17.5 -42.5 -30.5 -63.5s-27.833 -40 -44.5 -57s-34.5 -30.833 -53.5 -41.5s-38.167 -16 -57.5 -16c-40 0 -70.833 13.833 -92.5 41.5s-32.5 64.5 -32.5 110.5c0 42.667 7.16699 84.334 21.5 125.001s33.666 77 57.999 109s52.5 57.667 84.5 77
s65.667 29 101 29c24 0 43 -2 57 -6s29 -9.66699 45 -17zM651.999 426.005c-10.667 6.66699 -21.5 11.666 -32.5 14.999s-25.167 5 -42.5 5c-25.333 0 -49.333 -8.83301 -72 -26.5s-42.334 -40.167 -59.001 -67.5s-29.834 -57.166 -39.501 -89.499s-14.5 -63.5 -14.5 -93.5
c0 -32 5 -57 15 -75s29 -27 57 -27c12.667 0 26.334 6.16699 41.001 18.5s29.167 28.5 43.5 48.5s28.333 42.5 42 67.5s25.834 50.167 36.501 75.5z" />
    <glyph glyph-name="A" unicode="A" horiz-adv-x="683" 
d="M222 0h-222v29c24 10.667 48 18.667 72 24l253 659h29l253 -659c13.333 -2.66699 26.5 -5.66699 39.5 -9s25.167 -8.33301 36.5 -15v-29h-256v29c13.333 5.33301 27 10 41 14s27.667 7.33301 41 10l-68 183h-239l-66 -183c28 -4 56.667 -12 86 -24v-29zM222 288h202
l-79 212l-19 86h-2l-25 -88z" />
    <glyph glyph-name="B" unicode="B" horiz-adv-x="615" 
d="M29 0l-0.00390625 29c26.667 12.667 54 20.667 82 24v593c-13.333 2.66699 -27 6.16699 -41 10.5s-27.667 9.16602 -41 14.499v29h106c12.667 0 24.834 0.333008 36.501 1l36.5 2c12.667 0.666992 26.334 1.33398 41.001 2.00098s31.334 1 50.001 1
c26.667 0 53.834 -2.16699 81.501 -6.5s52.667 -12.5 75 -24.5s40.5 -28.833 54.5 -50.5s21 -49.834 21 -84.501c0 -17.333 -2.66699 -34.666 -8 -51.999s-13.5 -33.5 -24.5 -48.5s-24.833 -28.167 -41.5 -39.5s-36.334 -19.666 -59.001 -24.999v-4
c20 -3.33301 39.833 -9 59.5 -17s37.167 -18.833 52.5 -32.5s27.833 -30.5 37.5 -50.5s14.5 -44 14.5 -72c0 -36 -8 -67 -24 -93s-36.833 -47.333 -62.5 -64s-54.834 -28.834 -87.501 -36.501s-65.667 -11.5 -99 -11.5c-23.333 0 -49.666 1 -78.999 3s-57.666 3 -84.999 3
h-96zM295.996 46c24 0 46.5 3.66699 67.5 11s39 17.5 54 30.5s26.833 28.667 35.5 47s13 38.166 13 59.499c0 26.667 -5.16699 48.834 -15.5 66.501s-24.333 31.667 -42 42s-38 17.5 -61 21.5s-46.833 6 -71.5 6h-75v-276c9.33301 -2.66699 20.5 -4.66699 33.5 -6
s33.5 -2 61.5 -2zM250.996 382c11.333 0 24.833 0.499023 40.5 1.49902s28.5 2.16699 38.5 3.5c30.667 10.667 55.834 27.834 75.501 51.501s29.5 51.5 29.5 83.5c0 44 -13.167 77 -39.5 99s-61.5 33 -105.5 33c-20.667 0 -38.334 -0.333008 -53.001 -1
s-26.667 -1.66699 -36 -3v-268h50z" />
    <glyph glyph-name="C" unicode="C" horiz-adv-x="644" 
d="M547 182l25.9932 -0.000976562c3.33301 -18.667 6.33301 -42.167 9 -70.5s3.33398 -55.833 2.00098 -82.5c-10 -8 -22 -14.5 -36 -19.5s-28.833 -9.16699 -44.5 -12.5s-31.667 -5.66602 -48 -6.99902s-31.833 -2 -46.5 -2c-56 0 -106 7.16699 -150 21.5
s-81.167 36.166 -111.5 65.499s-53.666 66.833 -69.999 112.5s-24.5 99.834 -24.5 162.501c0 65.333 9 120.833 27 166.5s42.333 83 73 112s66.334 50.167 107.001 63.5s83.334 20 128.001 20c44 0 81 -2.83301 111 -8.5s56.333 -14.167 79 -25.5
c0 -10.667 -0.333008 -23.167 -1 -37.5s-1.66699 -29.5 -3 -45.5s-3 -31.667 -5 -47s-4 -29.333 -6 -42h-26l-52 144c-7.33301 4 -19.5 6.66699 -36.5 8s-33.833 2 -50.5 2c-33.333 0 -64.833 -6.16699 -94.5 -18.5s-55.667 -31.333 -78 -57s-40.166 -58 -53.499 -97
s-20 -84.833 -20 -137.5c0 -47.333 6 -90.166 18 -128.499s29.333 -71 52 -98s50.334 -47.667 83.001 -62s69.667 -21.5 111 -21.5c22 0 40.333 1.66699 55 5s24.334 7.66602 29.001 12.999z" />
    <glyph glyph-name="D" unicode="D" horiz-adv-x="708" 
d="M29 0l0.00292969 29.002c23.333 10.667 50.666 18.667 81.999 24v593c-15.333 3.33301 -30 7.16602 -44 11.499s-26.667 8.83301 -38 13.5v29h102c11.333 0 24.666 0.333008 39.999 1s31.166 1.5 47.499 2.5l47 3c15 1 27.5 1.5 37.5 1.5
c113.333 0 200.5 -30.333 261.5 -91s91.5 -146.667 91.5 -258c0 -52.667 -7.5 -101.5 -22.5 -146.5s-37.833 -83.833 -68.5 -116.5s-69.5 -58.334 -116.5 -77.001s-102.5 -28 -166.5 -28c-10 0 -21.333 0.5 -34 1.5s-26 2 -40 3l-42.5 3c-14.333 1 -27.833 1.5 -40.5 1.5
h-96zM289.003 656.002c-17.333 0 -34 -0.167969 -50 -0.500977s-28.667 -1.5 -38 -3.5v-606c3.33301 -0.666992 9.33301 -1.16699 18 -1.5s18 -0.666016 28 -0.999023s19.5 -0.5 28.5 -0.5h19.5c46 0 85 8.66699 117 26s58.167 40.5 78.5 69.5s35.166 62.5 44.499 100.5
s14 78 14 120c0 32.667 -4.5 66.5 -13.5 101.5s-23.667 67 -44 96s-47.166 52.833 -80.499 71.5s-74 28 -122 28z" />
    <glyph glyph-name="E" unicode="E" horiz-adv-x="582" 
d="M503 700c-0.666992 -26.667 -1.83203 -53.499 -3.49902 -80.499s-4.16699 -54.167 -7.5 -81.5h-26l-41 110h-218v-265h163l39 74h25c4 -66 4 -133.333 0 -202h-25l-39 76h-163v-279h230l49 120h25c4.66699 -28 8 -56.333 10 -85s2.33301 -57.667 1 -87h-493v29
c23.333 10.667 50.666 18.667 81.999 24v593c-13.333 2.66699 -27 6.16699 -41 10.5s-27.667 9.16602 -41 14.499v29h474z" />
    <glyph glyph-name="F" unicode="F" horiz-adv-x="544" 
d="M197 53c29.333 -4 58.001 -12 86.001 -24v-29h-254v29c11.333 5.33301 23 10 35 14s24.333 7.33301 37 10v593c-14.667 3.33301 -28 7.16602 -40 11.499s-22.667 8.83301 -32 13.5v29h469c-0.666992 -26 -1.83398 -52.667 -3.50098 -80s-4.16699 -54.666 -7.5 -81.999
h-26l-41 110h-223v-284h178l36 63h24c3.33301 -30 4.83301 -60.167 4.5 -90.5s-1.83301 -60.833 -4.5 -91.5h-24l-36 67h-178v-259z" />
    <glyph glyph-name="G" unicode="G" horiz-adv-x="688" 
d="M609 48c-12.667 -7.33301 -27.5029 -14.5 -44.5029 -21.5s-35 -13.333 -54 -19s-38 -10.334 -57 -14.001s-36.833 -5.5 -53.5 -5.5c-53.333 0 -101.333 7.16699 -144 21.5s-79 36.333 -109 66s-53.167 67.167 -69.5 112.5s-24.5 99.333 -24.5 162
c0 65.333 9.5 121 28.5 167s44.333 83.5 76 112.5s67.667 50 108 63s81.5 19.5 123.5 19.5c44 0 81.167 -2.83301 111.5 -8.5s56.833 -14.167 79.5 -25.5c0 -10 -0.333008 -22.333 -1 -37s-1.66699 -30 -3 -46s-3 -31.833 -5 -47.5s-4 -29.5 -6 -41.5h-26l-52 144
c-7.33301 4 -19.666 6.66699 -36.999 8s-34.333 2 -51 2c-33.333 0 -65 -6.16699 -95 -18.5s-56.167 -31.333 -78.5 -57s-40.166 -58 -53.499 -97s-20 -84.833 -20 -137.5c0 -47.333 6.5 -90 19.5 -128s31 -70.5 54 -97.5s50 -47.833 81 -62.5s64.5 -22 100.5 -22
c13.333 0 26.333 1.33301 39 4s24.334 5.83398 35.001 9.50098s19.5 7.5 26.5 11.5s11.833 7.33301 14.5 10v202c-17.333 1.33301 -33.833 4.33301 -49.5 9s-31.167 9.66699 -46.5 15v29h245v-29c-6.66699 -4.66699 -14.667 -9 -24 -13s-22 -7.66699 -38 -11v-229z" />
    <glyph glyph-name="H" unicode="H" horiz-adv-x="728" 
d="M282 0l-253.002 0.00195312v29c26.667 10.667 54 18.667 82 24v593c-31.333 4.66699 -58.666 13 -81.999 25v29h253v-29c-11.333 -6 -23.333 -11 -36 -15s-25.667 -7.33301 -39 -10v-261h314v261c-14 3.33301 -27.167 7 -39.5 11s-24.166 8.66699 -35.499 14v29h253v-29
c-12 -6.66699 -25.167 -11.834 -39.5 -15.501s-28.5 -6.83398 -42.5 -9.50098v-593c15.333 -2.66699 30 -6 44 -10s26.667 -8.66699 38 -14v-29h-253v29c24 10.667 49 18.667 75 24v280h-314v-280c13.333 -2.66699 26.333 -6 39 -10s24.667 -8.66699 36 -14v-29z" />
    <glyph glyph-name="I" unicode="I" horiz-adv-x="352" 
d="M304 0h-256.002v29c26 12 52.667 20 80 24v593c-13.333 2.66699 -26.666 6.16699 -39.999 10.5s-26.666 9.16602 -39.999 14.499v29h256v-29c-12 -5.33301 -25 -10.166 -39 -14.499s-27.667 -7.83301 -41 -10.5v-593c14 -2.66699 28 -6 42 -10s26.667 -8.66699 38 -14
v-29z" />
    <glyph glyph-name="J" unicode="J" horiz-adv-x="341" 
d="M39 700l254.005 -0.000976562v-29c-12 -5.33301 -24.333 -10.166 -37 -14.499s-25.667 -7.83301 -39 -10.5v-560c0 -46.667 -5.33301 -85 -16 -115s-23.834 -54.167 -39.501 -72.5s-32.334 -31.833 -50.001 -40.5s-33.834 -14.667 -48.501 -18l-11 15
c10 8.66699 19.167 18.5 27.5 29.5s15.666 24.833 21.999 41.5s11.166 37 14.499 61s5 53.333 5 88v571c-14.667 3.33301 -29 7 -43 11s-27 8.66699 -39 14v29z" />
    <glyph glyph-name="K" unicode="K" horiz-adv-x="646" 
d="M382 700l221.001 -0.000976562v-29c-13.333 -6 -26.333 -11 -39 -15s-25 -7.33301 -37 -10l-201 -266l57.5 -74l68 -84.5l73 -88l73.5 -84.5l48 -24v-25h-125l-34 24c-39.333 46 -78.5 95.667 -117.5 149l-113.5 162h-49v-282c30.667 -5.33301 55.667 -13.333 75 -24v-29
h-253v29c26.667 10.667 54 18.667 82 24v593c-30 4 -57.333 12.333 -82 25v29h253v-29c-10.667 -4.66699 -22.334 -9.16699 -35.001 -13.5s-26 -8.16602 -40 -11.499v-277l60 14l187 263c-13.333 3.33301 -26 7 -38 11s-23.333 8.66699 -34 14v29z" />
    <glyph glyph-name="L" unicode="L" horiz-adv-x="549" 
d="M29 700l274 0.00390625v-29c-16 -6 -32 -11.167 -48 -15.5s-32 -7.5 -48 -9.5v-594h230l59 161h26c2 -14 3.83301 -30.167 5.5 -48.5s3 -37.333 4 -57s1.5 -38.834 1.5 -57.501s-0.333008 -35.334 -1 -50.001h-503v29c16 7.33301 30.667 12.666 44 15.999s26 6 38 8v593
c-15.333 2.66699 -30 6.16699 -44 10.5s-26.667 9.16602 -38 14.499v29z" />
    <glyph glyph-name="M" unicode="M" horiz-adv-x="867" 
d="M837 0l-248.001 0.00195312v29c13.333 5.33301 26.666 9.83301 39.999 13.5s27 7.16699 41 10.5v450l4 117h-8l-33 -107l-205 -513h-26l-195 513l-36 117h-9l1 -127v-450c12.667 -2.66699 25.334 -6 38.001 -10s25.334 -8.66699 38.001 -14v-29h-209v29
c12.667 5.33301 25.834 10.166 39.501 14.499s27.5 7.83301 41.5 10.5v592c-14 2.66699 -27.833 6.16699 -41.5 10.5s-27.167 9.16602 -40.5 14.499v29h205l174 -457l34 -103h1l34 105l180 455h181v-29c-12 -5.33301 -24.333 -10.166 -37 -14.499
s-25.667 -7.83301 -39 -10.5v-594c14 -2.66699 27.167 -5.83398 39.5 -9.50098s24.166 -8.16699 35.499 -13.5v-29z" />
    <glyph glyph-name="N" unicode="N" horiz-adv-x="732" 
d="M487 700l216 -0.000976562v-29c-28 -18.667 -55.333 -32 -82 -40v-643h-57l-363 551l-39 78h-3l9 -78v-475c27.333 -7.33301 53 -19 77 -35v-29h-216v29c12 7.33301 24.833 13.833 38.5 19.5s28.167 10.834 43.5 15.501v573c-13.333 5.33301 -26.5 11 -39.5 17
s-25.167 12 -36.5 18v28h169l315 -475l46 -86h4l-5 86v406c-14 6 -27.5 12.333 -40.5 19s-25.167 13.667 -36.5 21v29z" />
    <glyph glyph-name="O" unicode="O" horiz-adv-x="740" 
d="M53 350c0 52 7.16699 100.167 21.5 144.5s35 82.666 62 114.999s60.167 57.5 99.5 75.5s84 27 134 27s94.667 -9 134 -27s72.5 -43.167 99.5 -75.5s47.667 -70.666 62 -114.999s21.5 -92.5 21.5 -144.5s-7.16699 -100.167 -21.5 -144.5s-35 -82.666 -62 -114.999
s-60.167 -57.5 -99.5 -75.5s-84 -27 -134 -27s-94.667 9 -134 27s-72.5 43.167 -99.5 75.5s-47.667 70.666 -62 114.999s-21.5 92.5 -21.5 144.5zM160 350c0 -42.667 4.50293 -82.834 13.5029 -120.501s22.5 -70.5 40.5 -98.5s40.667 -50.167 68 -66.5
s59.666 -24.5 96.999 -24.5c34 0 63.667 8.16699 89 24.5s46.166 38.5 62.499 66.5s28.666 60.833 36.999 98.5s12.5 77.834 12.5 120.501s-4.33301 82.834 -13 120.501s-22 70.5 -40 98.5s-40.667 50.167 -68 66.5s-59.666 24.5 -96.999 24.5
c-36.667 0 -67.834 -8.16699 -93.501 -24.5s-46.5 -38.5 -62.5 -66.5s-27.667 -60.833 -35 -98.5s-11 -77.834 -11 -120.501z" />
    <glyph glyph-name="P" unicode="P" horiz-adv-x="596" 
d="M207 53c18 -2 35.001 -5.16699 51.001 -9.5s31 -9.16602 45 -14.499v-29h-274v29c13.333 6.66699 27 11.667 41 15s27.667 6.33301 41 9v593c-15.333 2.66699 -29.666 6.16699 -42.999 10.5s-26.333 9.16602 -39 14.499v29h90c26.667 0 55.667 1.33301 87 4
s61.333 4 90 4c32.667 0 64.667 -3.5 96 -10.5s59.166 -18.833 83.499 -35.5s44 -38.834 59 -66.501s22.5 -62.167 22.5 -103.5c0 -39.333 -7.66699 -73 -23 -101s-35.833 -51 -61.5 -69s-54.834 -31.167 -87.501 -39.5s-66.334 -12.5 -101.001 -12.5h-15.5
c-7 0 -14.5 0.166992 -22.5 0.5s-15.667 0.833008 -23 1.5s-12.666 1.33398 -15.999 2.00098v-221zM275.001 656c-16 0 -29 -0.333984 -39 -1.00098s-19.667 -2 -29 -4v-324c3.33301 -1.33301 8.16602 -2.16602 14.499 -2.49902s13 -0.833008 20 -1.5s13.833 -1 20.5 -1h16
c23.333 0 45.333 3.16699 66 9.5s38.834 16.5 54.501 30.5s28.167 31.667 37.5 53s14 47 14 77c0 54.667 -15.5 95.667 -46.5 123s-73.833 41 -128.5 41z" />
    <glyph glyph-name="Q" unicode="Q" horiz-adv-x="740" 
d="M760 -115c-26.667 -24 -53.999 -44.5 -81.999 -61.5s-58 -25.167 -90 -24.5c-27.333 0 -56 5 -86 15s-62 22 -96 36l-108.5 44c-38.333 15.333 -79.833 28.666 -124.5 39.999l30 20c14.667 2 29 3 43 3c33.333 0 66.166 -4 98.499 -12s64.833 -16.667 97.5 -26
s65.667 -18 99 -26s67.333 -12 102 -12c18 0 36.333 1.33301 55 4s37.667 7.33398 57 14.001zM53.001 350c0 52 7.16699 100.167 21.5 144.5s35 82.666 62 114.999s60.167 57.5 99.5 75.5s84 27 134 27s94.667 -9 134 -27s72.5 -43.167 99.5 -75.5
s47.667 -70.666 62 -114.999s21.5 -92.5 21.5 -144.5s-7.16699 -100.167 -21.5 -144.5s-35 -82.666 -62 -114.999s-60.167 -57.5 -99.5 -75.5s-84 -27 -134 -27s-94.667 9 -134 27s-72.5 43.167 -99.5 75.5s-47.667 70.666 -62 114.999s-21.5 92.5 -21.5 144.5zM160.001 350
c0 -42.667 4.50293 -82.834 13.5029 -120.501s22.5 -70.5 40.5 -98.5s40.667 -50.167 68 -66.5s59.666 -24.5 96.999 -24.5c34 0 63.667 8.16699 89 24.5s46.166 38.5 62.499 66.5s28.666 60.833 36.999 98.5s12.5 77.834 12.5 120.501s-4.33301 82.834 -13 120.501
s-22 70.5 -40 98.5s-40.667 50.167 -68 66.5s-59.666 24.5 -96.999 24.5c-36.667 0 -67.834 -8.16699 -93.501 -24.5s-46.5 -38.5 -62.5 -66.5s-27.667 -60.833 -35 -98.5s-11 -77.834 -11 -120.501z" />
    <glyph glyph-name="R" unicode="R" horiz-adv-x="637" 
d="M207 53c15.333 -3.33301 29.9971 -6.83008 43.9971 -10.4971s27.667 -8.16699 41 -13.5v-29h-263v29c14.667 6.66699 28.667 11.667 42 15s26.666 6.33301 39.999 9v593c-17.333 3.33301 -32.666 7.16602 -45.999 11.499s-25.333 8.83301 -36 13.5v29h88
c26.667 0 55.834 1.33301 87.501 4s62.5 4 92.5 4c32.667 0 63.167 -3.66699 91.5 -11s52.833 -19 73.5 -35s36.834 -36.333 48.501 -61s17.5 -54.334 17.5 -89.001c0 -48.667 -12.833 -89 -38.5 -121s-60.5 -55 -104.5 -69c28.667 -45.333 58.667 -90.333 90 -135
s64 -89 98 -133l54 -29v-25h-121l-38 28c-18.667 23.333 -35.667 46.166 -51 68.499s-29.666 45 -42.999 68s-25.833 46.333 -37.5 70l-35.5 75.5h-94v-257zM274.997 656.003c-16 0 -29.167 -0.332031 -39.5 -0.999023s-19.833 -2 -28.5 -4v-299h72
c46 0 82.5 14.667 109.5 44s40.5 68 40.5 116c0 49.333 -14.333 85.666 -43 108.999s-65.667 35 -111 35z" />
    <glyph glyph-name="S" unicode="S" horiz-adv-x="536" 
d="M150 69c8 -8 18.3301 -14.8311 30.9971 -20.498s31.667 -8.5 57 -8.5c21.333 0 41.333 2.83301 60 8.5s34.834 14 48.501 25s24.5 24.333 32.5 40s12 33.5 12 53.5c0 26.667 -8.16699 49 -24.5 67s-36.666 34 -60.999 48s-50.833 27.667 -79.5 41
s-55.167 29.166 -79.5 47.499s-44.666 40.333 -60.999 66s-24.5 57.834 -24.5 96.501c0 28 5 53 15 75s24.167 40.667 42.5 56s40.166 27.166 65.499 35.499s53.666 12.5 84.999 12.5c40.667 0 77.834 -3.16699 111.501 -9.5s60.167 -14.166 79.5 -23.499
c0 -11.333 -0.833008 -24.5 -2.5 -39.5s-3.66699 -30.5 -6 -46.5s-4.83301 -31.5 -7.5 -46.5s-5.33398 -28.167 -8.00098 -39.5h-26l-40 137c-12 5.33301 -27.167 9.33301 -45.5 12s-37.833 4 -58.5 4c-34 0 -61.333 -9.5 -82 -28.5s-31 -45.5 -31 -79.5
c0 -27.333 8.16699 -50.333 24.5 -69s36.833 -35.334 61.5 -50.001s51.167 -28.834 79.5 -42.501s54.833 -29.5 79.5 -47.5s45.167 -39.333 61.5 -64s24.5 -55.334 24.5 -92.001c0 -30 -5.5 -57.333 -16.5 -82s-26.833 -45.667 -47.5 -63s-46 -30.666 -76 -39.999
s-64 -14 -102 -14c-42 0 -79.667 5 -113 15s-57 20.667 -71 32c0.666992 11.333 1.83398 25 3.50098 41s3.66699 32.5 6 49.5s4.83301 33.5 7.5 49.5s5.33398 29.667 8.00098 41h26z" />
    <glyph glyph-name="T" unicode="T" horiz-adv-x="619" 
d="M450 0h-281v29c14.667 5.33301 29.5 10 44.5 14s31.167 7.33301 48.5 10v595h-153l-53 -143h-25c-2 13.333 -3.66699 28.5 -5 45.5s-2.5 34.333 -3.5 52s-1.83301 35 -2.5 52s-1 32.167 -1 45.5h581c0 -13.333 -0.333008 -28.333 -1 -45s-1.5 -33.834 -2.5 -51.501
l-3 -52c-1 -17 -2.5 -32.5 -4.5 -46.5h-26l-52 143h-153v-595c17.333 -3.33301 33.5 -6.66602 48.5 -9.99902s29.5 -8 43.5 -14v-29z" />
    <glyph glyph-name="U" unicode="U" horiz-adv-x="672" 
d="M10 700h253.997v-29c-12.667 -5.33301 -25.334 -10 -38.001 -14s-25.334 -7.66699 -38.001 -11v-409c0 -35.333 3.83301 -64.833 11.5 -88.5s18.834 -42.667 33.501 -57s32.834 -24.666 54.501 -30.999s46.167 -9.5 73.5 -9.5c52.667 0 93.667 14.5 123 43.5
s44 76.833 44 143.5v399c-15.333 5.33301 -29.666 10.833 -42.999 16.5s-25.333 11.5 -36 17.5v29h213v-29c-12.667 -7.33301 -25.5 -14 -38.5 -20s-26.167 -10.667 -39.5 -14v-401c0 -42.667 -5.66699 -79.334 -17 -110.001s-27.166 -56 -47.499 -76s-45 -34.833 -74 -44.5
s-61.167 -14.5 -96.5 -14.5c-83.333 0 -147 18.833 -191 56.5s-66 95.5 -66 173.5v425c-27.333 4 -54.666 12.333 -81.999 25v29z" />
    <glyph glyph-name="V" unicode="V" horiz-adv-x="684" 
d="M545 646c-16 3.33301 -31 7.16699 -45 11.5s-27.667 8.83301 -41 13.5v29h225v-29c-19.333 -10.667 -43.333 -19 -72 -25l-226 -646l-55 -12l-255 658c-13.333 3.33301 -26.333 7.16602 -39 11.499s-25 8.83301 -37 13.5v29h265v-29
c-11.333 -4.66699 -24 -9.16699 -38 -13.5s-28.667 -8.16602 -44 -11.499l171 -457l21 -80h2l20 82z" />
    <glyph glyph-name="W" unicode="W" horiz-adv-x="934" 
d="M796 646c-14 2 -28.001 5.16602 -42.001 9.49902s-28.667 9.5 -44 15.5v29h224v-29c-22.667 -10 -46.667 -18.333 -72 -25l-167 -646l-62 -12l-161 544l-158 -532l-61 -12l-177 658c-13.333 3.33301 -26.333 7 -39 11s-25 8.66699 -37 14v29h260v-29
c-12.667 -4.66699 -25.667 -9.16699 -39 -13.5s-27.666 -8.16602 -42.999 -11.499l99 -403l22 -130h2l35 132l135 455h34l145 -455l29 -130h2l23 132z" />
    <glyph glyph-name="X" unicode="X" horiz-adv-x="670" 
d="M395 700l230 -0.000976562v-29c-11.333 -4.66699 -23.333 -9.16699 -36 -13.5s-25.667 -8.16602 -39 -11.499l-176 -271l205 -322c32 -5.33301 59.333 -13.333 82 -24v-29h-266v29c24 12 49.333 20 76 24l-158 251l-152 -252c14 -2 27.667 -4.5 41 -7.5
s26.333 -8.16699 39 -15.5v-29h-231v29c12.667 6.66699 25.167 11.667 37.5 15s24.5 6.33301 36.5 9l196 299l-188 294l-39.5 12c-13 4 -26.167 8.33301 -39.5 13v29h265v-29c-10 -4 -21.167 -8 -33.5 -12s-26.5 -8.33301 -42.5 -13l140 -226l136 226
c-27.333 6 -55 14.333 -83 25v29z" />
    <glyph glyph-name="Y" unicode="Y" horiz-adv-x="644" 
d="M424 700l219.999 0.00195312v-29c-25.333 -12.667 -50.666 -21 -75.999 -25l-189 -348v-245c26 -3.33301 51.333 -11.333 76 -24v-29h-254v29c24 12 51.333 20 82 24v244l-202 349c-15.333 2.66699 -29.5 6.16699 -42.5 10.5s-25.833 9.16602 -38.5 14.499v29h265v-29
c-10 -4 -21.333 -8.16699 -34 -12.5s-27 -8.5 -43 -12.5l164 -294l154 294c-15.333 3.33301 -29.833 7.16602 -43.5 11.499s-26.5 8.83301 -38.5 13.5v29z" />
    <glyph glyph-name="Z" unicode="Z" horiz-adv-x="610" 
d="M533 192l26.001 0.00195312c2 -13.333 3.83301 -28.333 5.5 -45s3 -33.667 4 -51s1.66699 -34.333 2 -51s0.166016 -31.667 -0.500977 -45h-531v51l416 597h-308l-61 -140h-25c-2 14 -3.83301 29.333 -5.5 46s-3 33.667 -4 51s-1.66699 34.166 -2 50.499
s-0.5 31.166 -0.5 44.499h511v-52l-414 -596h326z" />
    <glyph glyph-name="bracketleft" unicode="[" horiz-adv-x="307" 
d="M83 700h189v-42h-104v-847h104v-41h-189v930z" />
    <glyph glyph-name="backslash" unicode="\" horiz-adv-x="382" 
d="M409 -107l-41 -23l-415 820l42 22z" />
    <glyph glyph-name="bracketright" unicode="]" horiz-adv-x="307" 
d="M224 -230h-189v41h104v847h-104v42h189v-930z" />
    <glyph glyph-name="asciicircum" unicode="^" horiz-adv-x="500" 
d="M233 711h32l170 -277h-88l-88 151l-24 67l-32 -68l-100 -150h-56z" />
    <glyph glyph-name="underscore" unicode="_" horiz-adv-x="410" 
d="M0 -143h410v-53h-410v53z" />
    <glyph glyph-name="grave" unicode="`" horiz-adv-x="328" 
d="M268 593l-22.001 -17l-186 149v20c4 3.33301 10.5 6.5 19.5 9.5s18.833 5.5 29.5 7.5s20.834 3.5 30.501 4.5s17.167 1.16699 22.5 0.5z" />
    <glyph glyph-name="a" unicode="a" horiz-adv-x="505" 
d="M410 131c0 -14.667 0.333008 -27.3291 1 -37.9961s1.33398 -22 2.00098 -34l69 -10v-21c-16.667 -8.66699 -35.167 -16.334 -55.5 -23.001s-39.833 -11.667 -58.5 -15h-25c-6.66699 15.333 -10.667 32.166 -12 50.499s-2.33301 38.5 -3 60.5h-5
c-2.66699 -13.333 -7.83398 -26.833 -15.501 -40.5s-17.667 -25.834 -30 -36.501s-26.833 -19.334 -43.5 -26.001s-35.667 -10 -57 -10c-40.667 0 -73.834 12.333 -99.501 37s-38.5 57 -38.5 97c0 30.667 6.16699 55.834 18.5 75.501s30.5 35.167 54.5 46.5
s53.667 19.5 89 24.5s76.333 8.83301 123 11.5c2.66699 28.667 3.5 54.5 2.5 77.5s-4.66699 42.667 -11 59s-15.666 29 -27.999 38s-28.5 13.5 -48.5 13.5c-9.33301 0 -19.833 -0.5 -31.5 -1.5s-23.167 -3.83301 -34.5 -8.5l-47 -120h-26c-6.66699 20 -12.5 40.667 -17.5 62
s-8.16699 42.333 -9.5 63c25.333 15.333 53.5 27.333 84.5 36s65.5 13 103.5 13c34 0 61.167 -4.83301 81.5 -14.5s35.833 -22.167 46.5 -37.5s17.667 -32.333 21 -51s5 -37.334 5 -56.001c0 -40 -0.833008 -78.5 -2.5 -115.5s-2.5 -72.5 -2.5 -106.5zM217 50.0049
c16.667 0 31.333 3.33301 44 10s23.334 14.667 32.001 24s15.667 18.833 21 28.5s9 17.834 11 24.501v105c-38.667 0 -70.334 -2 -95.001 -6s-44 -10.333 -58 -19s-23.667 -19.5 -29 -32.5s-8 -27.833 -8 -44.5c0 -28.667 7.33301 -50.834 22 -66.501s34.667 -23.5 60 -23.5
z" />
    <glyph glyph-name="b" unicode="b" horiz-adv-x="545" 
d="M77 682l-76.0029 8v26c20.667 8.66699 43.834 15.667 69.501 21l71.5 15h25v-351h2c11.333 34 30.5 61 57.5 81s56.833 30 89.5 30c60.667 0 107.167 -20.667 139.5 -62s48.5 -105 48.5 -191c0 -88 -22.167 -154.667 -66.5 -200s-108.166 -68 -191.499 -68
c-16.667 0 -33.334 1.16699 -50.001 3.5s-32.667 5.16602 -48 8.49902s-29.166 7.33301 -41.499 12s-22.166 9.33398 -29.499 14.001v653zM288.997 450c-32 0 -57.999 -10.8311 -77.999 -32.498s-34.667 -49.167 -44 -82.5v-279c12 -6.66699 26.667 -11.834 44 -15.501
s35.666 -5.5 54.999 -5.5c44 0 78.667 19.167 104 57.5s38 93.833 38 166.5c0 26 -2.16699 50.667 -6.5 74s-11.333 43.666 -21 60.999s-22 31 -37 41s-33.167 15 -54.5 15z" />
    <glyph glyph-name="c" unicode="c" horiz-adv-x="466" 
d="M427 70c-12 -23.333 -31.5 -42.832 -58.5 -58.499s-58.5 -23.5 -94.5 -23.5c-39.333 0 -73.5 6.16699 -102.5 18.5s-53.167 30 -72.5 53s-33.833 50.667 -43.5 83s-14.5 68.166 -14.5 107.499c0 84.667 20.667 149.5 62 194.5s97.666 67.5 168.999 67.5
c32.667 0 61.834 -2.83301 87.501 -8.5s47.5 -13.167 65.5 -22.5c-2 -22 -5.66699 -46.667 -11 -74s-12 -50 -20 -68h-27l-42 119c-4.66699 3.33301 -10 5.83301 -16 7.5s-16 2.5 -30 2.5c-45.333 0 -80.333 -16.5 -105 -49.5s-37 -88.833 -37 -167.5
c0 -25.333 3.5 -50 10.5 -74s17.667 -45.5 32 -64.5s32.333 -34.167 54 -45.5s46.834 -17 75.501 -17c23.333 0 43.666 3.33301 60.999 10s32 14.667 44 24z" />
    <glyph glyph-name="d" unicode="d" horiz-adv-x="555" 
d="M373 99c-3.33301 -14.667 -9.00098 -28.667 -17.001 -42s-17.833 -25.166 -29.5 -35.499s-25 -18.5 -40 -24.5s-31.167 -9 -48.5 -9c-66 0 -115.333 21 -148 63s-49 107.333 -49 196c0 85.333 20.833 150.333 62.5 195s97.834 67 168.501 67
c24.667 0 44 -1.16699 58 -3.5s29.333 -6.5 46 -12.5v189l-76 8v26c19.333 8 41.833 15 67.5 21s50.167 11 73.5 15h25v-695l66 -8v-21c-19.333 -9.33301 -39.333 -17.333 -60 -24s-41 -11.334 -61 -14.001h-25l-9 109h-4zM257.999 50c32.667 0 58.667 10.332 78 30.999
s32.666 48.667 39.999 84v282c-11.333 6.66699 -24.666 11.334 -39.999 14.001s-35 4 -59 4c-45.333 0 -80 -19.833 -104 -59.5s-36 -92.5 -36 -158.5c0 -27.333 2.33301 -52.833 7 -76.5s12 -44.5 22 -62.5s22.5 -32.167 37.5 -42.5s33.167 -15.5 54.5 -15.5z" />
    <glyph glyph-name="e" unicode="e" horiz-adv-x="503" 
d="M446 70c-5.33301 -11.333 -13.668 -22.002 -25.001 -32.002s-24.333 -18.667 -39 -26s-30.667 -13.166 -48 -17.499s-35 -6.5 -53 -6.5c-39.333 0 -74 6.16699 -104 18.5s-55 30 -75 53s-35.167 50.5 -45.5 82.5s-15.5 68 -15.5 108c0 85.333 19.667 150.333 59 195
s95 67 167 67c23.333 0 46.333 -3.16699 69 -9.5s42.834 -16.833 60.501 -31.5s32 -34.167 43 -58.5s16.5 -54.5 16.5 -90.5c0 -11.333 -0.5 -22.833 -1.5 -34.5s-2.83301 -24.167 -5.5 -37.5h-312c0 -28 3.5 -54.167 10.5 -78.5s17.5 -45.5 31.5 -63.5
s31.667 -32.167 53 -42.5s46.333 -15.5 75 -15.5c23.333 0 47 3.33301 71 10s42 15.334 54 26.001zM262.998 467.998c-38 0 -67 -12.832 -87 -38.499s-32 -70.834 -36 -135.501h220c0.666992 6 1.16699 11.833 1.5 17.5s0.5 11.167 0.5 16.5c0 42.667 -8 76.667 -24 102
s-41 38 -75 38z" />
    <glyph glyph-name="f" unicode="f" horiz-adv-x="342" 
d="M306 752c6 0 13.001 -0.333984 21.001 -1.00098s16.333 -1.5 25 -2.5s17 -2.33301 25 -4s15 -3.5 21 -5.5c-2 -22 -4.83301 -42.5 -8.5 -61.5s-8.16699 -36.167 -13.5 -51.5h-25l-44 86c-19.333 0 -35.833 -2 -49.5 -6s-25 -11.667 -34 -23s-15.667 -27.666 -20 -48.999
s-6.5 -49.333 -6.5 -84v-50h115v-50h-115v-401c34.667 -4 66.667 -12 96 -24v-25h-252v25c20.667 12 42.667 20 66 24v401h-76v26c23.333 14.667 48.666 25.667 75.999 33v35c0 41.333 5 75.5 15 102.5s24 48.333 42 64s39.167 26.5 63.5 32.5s50.5 9 78.5 9z" />
    <glyph glyph-name="g" unicode="g" horiz-adv-x="526" 
d="M247 512c36 0 66.3311 -3.50488 90.998 -10.5049s45.334 -17.833 62.001 -32.5c39.333 26.667 80.333 46 123 58c5.33301 -7.33301 9.16602 -16.333 11.499 -27s3.5 -20.667 3.5 -30l-13 -24h-105c16.667 -24 25 -55.667 25 -95c0 -48 -16.833 -87 -50.5 -117
s-82.834 -45 -147.501 -45c-12.667 0 -23 0.333008 -31 1s-17 1.66699 -27 3l-11.5 -20c-4.33301 -7.33301 -6.5 -15 -6.5 -23c0 -13.333 7.66699 -23.833 23 -31.5s34.5 -14.5 57.5 -20.5s48 -12.167 75 -18.5s52.167 -15 75.5 -26s42.833 -25.333 58.5 -43
s23.834 -40.5 24.501 -68.5c0.666992 -24 -4.83301 -45.667 -16.5 -65s-27.834 -35.5 -48.501 -48.5s-45.5 -23 -74.5 -30s-60.833 -10.5 -95.5 -10.5c-72.667 0 -127.5 12.333 -164.5 37s-55.5 55.667 -55.5 93c0 18 2.83301 33.667 8.5 47s13.834 25 24.501 35
s24 18.833 40 26.5s34.333 14.834 55 21.501c-14.667 6.66699 -26.834 15.834 -36.501 27.501s-14.5 25.834 -14.5 42.501c0 15.333 6.5 30.5 19.5 45.5s26.167 26.833 39.5 35.5c-38 10 -67.167 29 -87.5 57s-30.5 59.667 -30.5 95c0 22.667 4.33301 43.834 13 63.501
s21.334 36.834 38.001 51.501s37.334 26 62.001 34s53.334 12 86.001 12zM394.998 -81.0049c0 21.333 -7.16797 38.3311 -21.501 50.998s-32.166 23 -53.499 31s-44.333 14.667 -69 20s-47.667 11.333 -69 18c-25.333 -15.333 -42 -31.5 -50 -48.5s-12 -34.5 -12 -52.5
c0 -35.333 12.667 -61.833 38 -79.5s62 -26.5 110 -26.5c24.667 0 45.167 2.33301 61.5 7s29.333 10.834 39 18.501s16.5 16.834 20.5 27.501s6 22 6 34zM137.997 350.993c0 -16 1.83105 -31.168 5.49805 -45.501s9.66699 -26.833 18 -37.5s19.5 -19.167 33.5 -25.5
s31.333 -9.5 52 -9.5c38.667 0 66.334 11.333 83.001 34s25 50.667 25 84c0 36 -8.16699 64.5 -24.5 85.5s-44.166 31.5 -83.499 31.5c-40.667 0 -69 -10.167 -85 -30.5s-24 -49.166 -24 -86.499z" />
    <glyph glyph-name="h" unicode="h" horiz-adv-x="587" 
d="M570 0h-215.998v25c16 8.66699 36 16.667 60 24v234c0 52 -7.33301 92.833 -22 122.5s-41.334 44.5 -80.001 44.5c-17.333 0 -33 -3.16699 -47 -9.5s-26.667 -14.5 -38 -24.5s-21 -21.5 -29 -34.5s-14 -26.5 -18 -40.5v-292c10.667 -2.66699 20.834 -5.66699 30.501 -9
s19.167 -8.33301 28.5 -15v-25h-215v25c20.667 10.667 42.667 18.667 66 24v633l-76 8v26c19.333 8 41.833 15 67.5 21s50.167 11 73.5 15h25v-353h1c14 31.333 34.167 58 60.5 80s58.166 33 95.499 33c26.667 0 50.5 -3.16699 71.5 -9.5s38.5 -17.5 52.5 -33.5
s24.667 -37.5 32 -64.5s11 -61.167 11 -102.5v-253c11.333 -2.66699 22.666 -5.66699 33.999 -9s22 -8.33301 32 -15v-25z" />
    <glyph glyph-name="i" unicode="i" horiz-adv-x="301" 
d="M263 0h-222.002v25c10 5.33301 20.333 9.83301 31 13.5s22.334 7.16699 35.001 10.5v393l-66 8v26c19.333 8 40.333 15 63 21s45.334 11 68.001 15h25v-463c13.333 -3.33301 25.333 -6.83301 36 -10.5s20.667 -8.16699 30 -13.5v-25zM87.998 670
c0 18 5.83301 32.333 17.5 43s27.167 16 46.5 16s34.666 -5.33301 45.999 -16s17 -25 17 -43s-5.66699 -32.167 -17 -42.5s-26.666 -15.5 -45.999 -15.5s-34.833 5.16699 -46.5 15.5s-17.5 24.5 -17.5 42.5z" />
    <glyph glyph-name="j" unicode="j" horiz-adv-x="288" 
d="M106 442l-66 7.99707v26c19.333 9.33301 40.5 16.833 63.5 22.5s45.5 10.167 67.5 13.5h25v-469c0 -47.333 -6 -86.666 -18 -117.999s-26 -56.666 -42 -75.999s-32.333 -33.666 -49 -42.999s-30 -15.333 -40 -18l-12 19c8 4 16.167 11 24.5 21s16 23.833 23 41.5
s12.667 39.167 17 64.5s6.5 55.333 6.5 90v418zM86 669.997c0 18 5.83301 32.333 17.5 43s27.167 16 46.5 16s34.666 -5.33301 45.999 -16s17 -25 17 -43s-5.66699 -32.167 -17 -42.5s-26.666 -15.5 -45.999 -15.5s-34.833 5.16699 -46.5 15.5s-17.5 24.5 -17.5 42.5z" />
    <glyph glyph-name="k" unicode="k" horiz-adv-x="516" 
d="M300 500l192.998 -0.000976562v-26c-12.667 -5.33301 -25.167 -10 -37.5 -14s-25.166 -7.33301 -38.499 -10c-10 -13.333 -21.5 -27.666 -34.5 -42.999l-39.5 -46l-38.5 -43l-31.5 -33l36.5 -48.5l46.5 -60.5l51.5 -65c17.667 -22 35.167 -42.667 52.5 -62l56 -24v-25
h-124l-27 24c-35.333 44 -64.666 83.167 -87.999 117.5l-64 96.5l-33 10v-199c22 -4 43.667 -12 65 -24v-25h-221v25c22 10.667 44 18.667 66 24v633l-76 8v26c18.667 8.66699 41 15.667 67 21l74 15h25v-478h26l35 40l38 45.5l37 46.5l33 44
c-16.667 4.66699 -33 12.667 -49 24v26z" />
    <glyph glyph-name="l" unicode="l" horiz-adv-x="301" 
d="M263 0h-222v25c22 10.667 44 18.667 66 24v633l-76 8v26c17.333 8 39 15 65 21s51.333 11 76 15h25v-703c22 -5.33301 44 -13.333 66 -24v-25z" />
    <glyph glyph-name="m" unicode="m" horiz-adv-x="863" 
d="M548 0l-214.003 0.000976562v25c6.66699 4 14.834 8.16699 24.501 12.5s21.167 8.16602 34.5 11.499v231c0 26.667 -1.16699 50.667 -3.5 72s-6.66602 39.166 -12.999 53.499s-15.5 25.333 -27.5 33s-27.667 11.5 -47 11.5c-14.667 0 -28.167 -3 -40.5 -9
s-23.333 -14 -33 -24s-18 -21.333 -25 -34s-12.5 -26 -16.5 -40v-294c10.667 -3.33301 20.834 -6.83301 30.501 -10.5s19.167 -8.16699 28.5 -13.5v-25h-215v25c9.33301 4.66699 19.666 9 30.999 13s23 7.66699 35 11v393l-66 8v26
c21.333 9.33301 43.166 16.833 65.499 22.5s44.166 10.167 65.499 13.5h25v-113h1c10.667 31.333 28.834 58 54.501 80s57.5 33 95.5 33c16 0 31.333 -1.66699 46 -5s28.334 -9.5 41.001 -18.5s23.334 -21.5 32.001 -37.5s15 -36.667 19 -62
c12 36.667 31.333 66.334 58 89.001s60 34 100 34c24.667 0 46.167 -3.16699 64.5 -9.5s33.5 -17.5 45.5 -33.5s20.833 -37.667 26.5 -65s8.5 -62 8.5 -104v-251c22.667 -4 44.667 -12 66 -24v-25h-215v25c20 10.667 39.667 18.667 59 24v249c0 24 -1.16699 45.333 -3.5 64
s-6.83301 34.5 -13.5 47.5s-16 23 -28 30s-28 10.5 -48 10.5c-32 0 -56.833 -11 -74.5 -33s-30.5 -50 -38.5 -84v-284c23.333 -6.66699 45 -14.667 65 -24v-25z" />
    <glyph glyph-name="n" unicode="n" horiz-adv-x="594" 
d="M577 0h-214.999v25c18 9.33301 37.667 17.333 59 24v237c0 50.667 -7.33301 90.667 -22 120s-41.334 44 -80.001 44c-16.667 0 -32.167 -3 -46.5 -9s-27 -14.167 -38 -24.5s-20.5 -22 -28.5 -35s-14.333 -26.5 -19 -40.5v-292c20.667 -4 40.667 -12 60 -24v-25h-216v25
c16.667 8.66699 38.667 16.667 66 24v393l-66 8v26c17.333 7.33301 37.333 14 60 20s46.334 11.333 71.001 16h25v-112h1c14 30.667 34.167 57 60.5 79s58.166 33 95.499 33c26.667 0 50.5 -3.16699 71.5 -9.5s38.5 -17.5 52.5 -33.5s24.667 -37.5 32 -64.5
s11 -61.167 11 -102.5v-253c26.667 -4.66699 48.667 -12.667 66 -24v-25z" />
    <glyph glyph-name="o" unicode="o" horiz-adv-x="553" 
d="M41 250c0 42 5.49902 79.1689 16.499 111.502s26.833 59.666 47.5 81.999s45.5 39.333 74.5 51s61.167 17.5 96.5 17.5c41.333 0 77 -6.33301 107 -19s54.5 -30.5 73.5 -53.5s33 -50.5 42 -82.5s13.5 -67.667 13.5 -107c0 -84 -21.333 -148.667 -64 -194
s-100 -68 -172 -68c-40 0 -74.667 6.16699 -104 18.5s-53.666 30 -72.999 53s-33.833 50.667 -43.5 83s-14.5 68.166 -14.5 107.499zM136.999 250.002c0 -30 2.83301 -58.332 8.5 -84.999s14.667 -49.834 27 -69.501s28.5 -35.167 48.5 -46.5s44 -17 72 -17
c36 0 65.5 17.667 88.5 53s34.5 90.333 34.5 165c0 30.667 -2.83301 59.167 -8.5 85.5s-14.5 49.333 -26.5 69s-27.333 35.167 -46 46.5s-41 17 -67 17c-39.333 0 -71 -17.667 -95 -53s-36 -90.333 -36 -165z" />
    <glyph glyph-name="p" unicode="p" horiz-adv-x="566" 
d="M253 -200h-221.999v25c22.667 10.667 44.667 18.667 66 24v593l-66 8v26c21.333 9.33301 43.166 16.833 65.499 22.5s44.166 10.167 65.499 13.5h25v-112h1c13.333 34 32 61.167 56 81.5s55.333 30.5 94 30.5c59.333 0 105.333 -19.667 138 -59s49 -103.333 49 -192
c0 -42 -5.5 -80 -16.5 -114s-26.667 -62.667 -47 -86s-45 -41.333 -74 -54s-61.167 -19 -96.5 -19c-24.667 0 -44 1.5 -58 4.5s-29.333 8.16699 -46 15.5v-159c10.667 -1.33301 21.334 -3.83301 32.001 -7.5s22 -9.16699 34 -16.5v-25zM306.001 450
c-32.667 0 -58.665 -10.334 -77.998 -31.001s-33 -49 -41 -85v-280c12 -7.33301 25.5 -12.833 40.5 -16.5s34.5 -5.5 58.5 -5.5c22 0 41.833 5.66699 59.5 17s32.667 27.333 45 48s21.833 44.834 28.5 72.501s10 58.167 10 91.5c0 27.333 -2.16699 52.5 -6.5 75.5
s-11.333 43 -21 60s-22.334 30.167 -38.001 39.5s-34.834 14 -57.501 14z" />
    <glyph glyph-name="q" unicode="q" horiz-adv-x="548" 
d="M372 89c-9.33301 -26.667 -25.667 -50.166 -49 -70.499s-53 -30.5 -89 -30.5c-64 0 -112.167 21.167 -144.5 63.5s-48.5 107.5 -48.5 195.5c0 86.667 21.5 152 64.5 196s104.833 66 185.5 66c36 0 70.333 -3.33301 103 -10s56.667 -13.667 72 -21v-629
c11.333 -2 22.333 -4.83301 33 -8.5s21.667 -8.83398 33 -15.501v-25h-222v25c20.667 10.667 42.667 18.667 66 24v240h-4zM257.999 50.001c32.667 0 58.499 10.333 77.499 31s32.5 48.334 40.5 83.001v287c-12 4 -26.167 7.33301 -42.5 10s-35.166 4 -56.499 4
c-44.667 0 -79.167 -17.333 -103.5 -52s-36.5 -89.334 -36.5 -164.001c0 -28 2 -54 6 -78s10.833 -45 20.5 -63s22.167 -32.167 37.5 -42.5s34.333 -15.5 57 -15.5z" />
    <glyph glyph-name="r" unicode="r" horiz-adv-x="384" 
d="M244 425c-7.33301 -4 -16.501 -12.168 -27.501 -24.501s-20.833 -30.5 -29.5 -54.5v-297c13.333 -1.33301 26.666 -3.83301 39.999 -7.5s26.666 -9.16699 39.999 -16.5v-25h-236v25c12 6.66699 23.333 11.667 34 15s21.334 6.33301 32.001 9v393l-66 8v26
c21.333 9.33301 43.333 16.833 66 22.5s44.334 10.167 65.001 13.5h25v-106h4c6 13.333 14.5 26.666 25.5 39.999s23.667 25.333 38 36s30 18.834 47 24.501s34.5 7.5 52.5 5.5c4.66699 -8.66699 8.83398 -18.167 12.501 -28.5s7.16699 -21.166 10.5 -32.499v-26h-133z" />
    <glyph glyph-name="s" unicode="s" horiz-adv-x="433" 
d="M295 114c0 18.667 -5.83203 34.5039 -17.499 47.5039s-26.5 25.167 -44.5 36.5s-37.167 22.333 -57.5 33s-39.5 23.167 -57.5 37.5s-32.833 30.833 -44.5 49.5s-17.5 41.667 -17.5 69c0 18 4.16699 34.667 12.5 50s19.5 28.5 33.5 39.5s30.333 19.667 49 26
s38.667 9.5 60 9.5c36 0 65.5 -2 88.5 -6s45.167 -9.66699 66.5 -17c-2.66699 -21.333 -5.83398 -42.833 -9.50098 -64.5s-8.83398 -43.834 -15.501 -66.501h-25l-38 102c-8 3.33301 -17 5.5 -27 6.5s-20.333 1.5 -31 1.5c-12 0 -22.5 -2.16699 -31.5 -6.5
s-16.667 -9.83301 -23 -16.5s-11.166 -14.334 -14.499 -23.001s-5 -17.334 -5 -26.001c0 -18 5.83301 -33.5 17.5 -46.5s26.5 -25 44.5 -36s37.167 -21.833 57.5 -32.5s39.5 -22.667 57.5 -36s32.833 -28.833 44.5 -46.5s17.5 -38.834 17.5 -63.501
c0 -22.667 -4.83301 -43 -14.5 -61s-23 -33.333 -40 -46s-36.667 -22.5 -59 -29.5s-46.166 -10.5 -71.499 -10.5c-28.667 0 -55 2.5 -79 7.5s-49 12.167 -75 21.5c1.33301 24 4.33301 47.167 9 69.5s10.667 43.833 18 64.5h25l44 -109
c7.33301 -5.33301 16.166 -8.33301 26.499 -9s19.833 -1 28.5 -1c29.333 0 53 8 71 24s27 35.333 27 58z" />
    <glyph glyph-name="t" unicode="t" horiz-adv-x="371" 
d="M15 476c25.333 16 51.999 27.3311 79.999 33.998v85c8.66699 6.66699 18.834 13.167 30.501 19.5s23.167 11.833 34.5 16.5h25v-131h150v-50h-150v-290c0 -40 6.33301 -68.333 19 -85s31.667 -25 57 -25c12 0 27 0.833008 45 2.5s33.333 4.83398 46 9.50098l7 -15
c-5.33301 -6 -12.833 -12.333 -22.5 -19s-20.667 -13 -33 -19s-25.833 -11 -40.5 -15s-29.667 -6 -45 -6c-40 0 -70.5 11.333 -91.5 34s-31.5 59.334 -31.5 110.001v318h-80v26z" />
    <glyph glyph-name="u" unicode="u" horiz-adv-x="574" 
d="M77 198c0 42 1.00195 83.167 3.00195 123.5s3 80.5 3 120.5l-66 8v26c21.333 8 43.166 15 65.499 21s44.166 11 65.499 15h25c0 -50 -1 -99.667 -3 -149s-3 -98.333 -3 -147c0 -26 1.5 -49.333 4.5 -70s8.33301 -38 16 -52s18.167 -24.833 31.5 -32.5
s30.333 -11.5 51 -11.5c30 0 55.167 10.833 75.5 32.5s36.166 49.834 47.499 84.501v275l-65 8v26c20.667 8 42.167 15 64.5 21s44.166 11 65.499 15h25v-455l66 -8v-21c-19.333 -8.66699 -38.833 -16.334 -58.5 -23.001s-40.167 -11.667 -61.5 -15h-25l-7 119h-4
c-3.33301 -14 -9.16602 -28.167 -17.499 -42.5s-19.166 -27.333 -32.499 -39s-28.5 -21.167 -45.5 -28.5s-35.5 -11 -55.5 -11c-26.667 0 -50.167 3.16699 -70.5 9.5s-37.5 17.5 -51.5 33.5s-24.667 37.5 -32 64.5s-11 61.167 -11 102.5z" />
    <glyph glyph-name="v" unicode="v" horiz-adv-x="507" 
d="M238 -12l-194.999 461.999c-19.333 6.66699 -37 14.667 -53 24v26h209v-25c-8.66699 -4.66699 -17.5 -9.16699 -26.5 -13.5s-19.167 -8.16602 -30.5 -11.499l116 -301l20 -62h2l15 63l107 300c-10.667 2.66699 -20.5 6 -29.5 10s-17.5 8.66699 -25.5 14v26h170v-26
c-6.66699 -4.66699 -14.834 -9 -24.501 -13s-20.5 -7.66699 -32.5 -11l-177 -450z" />
    <glyph glyph-name="w" unicode="w" horiz-adv-x="728" 
d="M200 -12l-157.001 461.999c-9.33301 3.33301 -18.5 6.83301 -27.5 10.5s-17.5 8.16699 -25.5 13.5v26h208v-25c-9.33301 -5.33301 -18.666 -10.166 -27.999 -14.499s-19 -7.83301 -29 -10.5l87 -292l13 -72h2l15 74l108 330l30 10l115 -341l18 -73h2l15 73l77 291
c-7.33301 1.33301 -15.833 4 -25.5 8s-19.5 9.33301 -29.5 16v26h170v-26c-14 -9.33301 -33 -17.333 -57 -24l-142 -450l-53 -12l-99 283l-19 83h-3l-23 -83l-90 -271z" />
    <glyph glyph-name="x" unicode="x" horiz-adv-x="519" 
d="M298 268l158.001 -219.001c9.33301 -3.33301 18.5 -6.83301 27.5 -10.5s17.5 -8.16699 25.5 -13.5v-25h-205v24l26 14.5c8 4.33301 16 7.83301 24 10.5l-111 164l-112 -164c9.33301 -3.33301 18 -7 26 -11s16 -8.33301 24 -13v-25h-171v25
c18.667 11.333 37.334 19.333 56.001 24l149 199l-150 202c-9.33301 3.33301 -17.833 6.83301 -25.5 10.5s-15.5 8.16699 -23.5 13.5v26h201v-25c-8 -5.33301 -15.833 -10.166 -23.5 -14.499s-16.167 -7.83301 -25.5 -10.5l104 -150l102 150
c-22.667 7.33301 -39.334 15.333 -50.001 24v26h167v-26c-12.667 -8.66699 -31.334 -16.667 -56.001 -24z" />
    <glyph glyph-name="y" unicode="y" horiz-adv-x="505" 
d="M42 450c-10 2.66699 -19.168 6 -27.501 10s-16.833 8.66699 -25.5 14v26h209v-25c-14 -9.33301 -33 -17.666 -57 -24.999l128 -296l19 -62h2l15 63l95 295c-20 4 -38.333 12 -55 24v26h171v-26c-14 -9.33301 -33 -17.333 -57 -24l-156 -450
c-16 -42.667 -31.167 -77.167 -45.5 -103.5s-28.666 -47.166 -42.999 -62.499s-29 -26.5 -44 -33.5s-31.167 -12.167 -48.5 -15.5c-7.33301 12.667 -13.833 26.667 -19.5 42s-10.5 30 -14.5 44l13 24h104c4 5.33301 7.5 10.5 10.5 15.5s6.16699 11.167 9.5 18.5
s7 16.666 11 27.999s8.66699 25.666 14 42.999z" />
    <glyph glyph-name="z" unicode="z" horiz-adv-x="488" 
d="M423 171c4.66699 -28 8.16699 -56.1689 10.5 -84.502s2.83301 -57.166 1.5 -86.499h-392v25l285 431h-189l-44 -118h-25c-5.33301 28.667 -8.5 56.834 -9.5 84.501s-1.5 53.5 -1.5 77.5h376v-26l-286 -430h195l54 127h25z" />
    <glyph glyph-name="braceleft" unicode="{" horiz-adv-x="348" 
d="M135 111c0 34 -7 60.667 -21 80s-33.667 29 -59 29v30c25.333 0 45 10.167 59 30.5s21 45.166 21 74.499v239c0 32 8 57.667 24 77s40 29 72 29h90v-42h-48c-18 0 -31.167 -4.66699 -39.5 -14s-12.5 -24.666 -12.5 -45.999v-233c0 -22 -3.5 -40.667 -10.5 -56
s-16 -27.833 -27 -37.5s-22.833 -17 -35.5 -22s-25 -8.16699 -37 -9.5v-6c11.333 -1.33301 23.5 -4.66602 36.5 -9.99902s25 -13.333 36 -24s20 -23.834 27 -39.501s10.5 -34.167 10.5 -55.5v-234c0 -20.667 4 -35.834 12 -45.501s21.667 -14.5 41 -14.5h47v-41h-90
c-30 0 -53.5 8.83301 -70.5 26.5s-25.5 43.834 -25.5 78.501v236z" />
    <glyph glyph-name="bar" unicode="|" horiz-adv-x="237" 
d="M93 700h52v-830h-52v830z" />
    <glyph glyph-name="braceright" unicode="}" horiz-adv-x="348" 
d="M238 360c0 -34 6.99902 -60.667 20.999 -80s33.667 -29 59 -29v-30c-25.333 0 -45 -10.167 -59 -30.5s-21 -45.166 -21 -74.499v-240c0 -32 -8 -57.667 -24 -77s-40 -29 -72 -29h-90v41h49c18 0 31.167 4.66699 39.5 14s12.5 24.666 12.5 45.999v235c0 22 3 40.667 9 56
s13.833 27.833 23.5 37.5s20.334 17 32.001 22s23.5 8.16699 35.5 9.5v6c-11.333 1.33301 -23 4.66602 -35 9.99902s-22.833 13.333 -32.5 24s-17.5 23.834 -23.5 39.501s-9 34.167 -9 55.5v232c0 20.667 -4 35.834 -12 45.501s-21.667 14.5 -41 14.5h-48v42h91
c30 0 53.333 -8.83301 70 -26.5s25 -43.834 25 -78.501v-235z" />
    <glyph glyph-name="asciitilde" unicode="~" horiz-adv-x="530" 
d="M58 322c24 36 46.998 60.833 68.998 74.5s43 20.5 63 20.5c16.667 0 33 -3.5 49 -10.5s31.667 -14.833 47 -23.5s30.833 -16.5 46.5 -23.5s31.834 -10.5 48.501 -10.5c12 0 24.5 2.5 37.5 7.5s26.167 13.833 39.5 26.5l13 -21c-19.333 -28 -38.5 -47.833 -57.5 -59.5
s-37.5 -17.5 -55.5 -17.5c-17.333 0 -34.166 3.5 -50.499 10.5s-32.5 14.833 -48.5 23.5s-32 16.5 -48 23.5s-32 10.5 -48 10.5c-14.667 0 -29.5 -4 -44.5 -12s-30.167 -22.333 -45.5 -43z" />
    <glyph glyph-name="afii10023" unicode="&#x401;" horiz-adv-x="582" 
d="M503 700c-0.666992 -26.667 -1.83203 -53.499 -3.49902 -80.499s-4.16699 -54.167 -7.5 -81.5h-26l-41 110h-218v-265h163l39 74h25c4 -66 4 -133.333 0 -202h-25l-39 76h-163v-279h230l49 120h25c4.66699 -28 8 -56.333 10 -85s2.33301 -57.667 1 -87h-493v29
c23.333 10.667 50.666 18.667 81.999 24v593c-13.333 2.66699 -27 6.16699 -41 10.5s-27.667 9.16602 -41 14.499v29h474zM126.002 789.001c0 16 5.33301 28 16 36s24.334 12 41.001 12c16 0 29.333 -4 40 -12s16 -20 16 -36c0 -15.333 -5.33301 -27 -16 -35
s-24 -12 -40 -12c-16.667 0 -30.334 4 -41.001 12s-16 19.667 -16 35zM349.002 789.001c0 16 5.33301 28 16 36s24 12 40 12c16.667 0 30.334 -4 41.001 -12s16 -20 16 -36c0 -15.333 -5.33301 -27 -16 -35s-24.334 -12 -41.001 -12c-16 0 -29.333 4 -40 12
s-16 19.667 -16 35z" />
    <glyph glyph-name="afii10051" unicode="&#x402;" horiz-adv-x="751" 
d="M712 238c0 -50 -5.16797 -90.6729 -15.501 -122.006s-24.5 -55.833 -42.5 -73.5s-39.5 -29.667 -64.5 -36s-52.5 -9.5 -82.5 -9.5l-6 27c17.333 4 33 9.66699 47 17s26 18.5 36 33.5s17.833 34.833 23.5 59.5s8.5 56.334 8.5 95.001
c0 46.667 -9.33301 83.834 -28 111.501s-50 41.5 -94 41.5c-28 0 -54.667 -4.16699 -80 -12.5s-47.333 -18.166 -66 -29.499v-287c12.667 -3.33301 24.834 -7 36.501 -11s23.167 -8.33301 34.5 -13v-29h-259v29c14 5.33301 28.5 10 43.5 14s31.167 7.33301 48.5 10v595h-153
l-52 -143h-26c-2 13.333 -3.5 28.5 -4.5 45.5l-3 52c-1 17.667 -1.83301 35 -2.5 52s-1 32.167 -1 45.5h580c0 -13.333 -0.333008 -28.166 -1 -44.499s-1.5 -33.166 -2.5 -50.499l-3 -51c-1 -16.667 -2.5 -32 -4.5 -46h-26l-52 140h-153v-259c18 10 42 20 72 30
s64 15 102 15c28 0 53.5 -2.83301 76.5 -8.5s43 -15.667 60 -30s30.167 -34.166 39.5 -59.499s14 -58 14 -98z" />
    <glyph glyph-name="afii10052" unicode="&#x403;" horiz-adv-x="507" 
d="M207 53c32.667 -5.33301 64.667 -13.332 96 -23.999v-29h-274v29c26.667 10.667 54 18.667 82 24v593c-13.333 2.66699 -27 6.16699 -41 10.5s-27.667 9.16602 -41 14.499v29h468c0 -13.333 -0.333008 -28.666 -1 -45.999l-2 -54
c-0.666992 -18.667 -1.66699 -36.834 -3 -54.501s-3 -33.5 -5 -47.5h-26l-52 150h-201v-595zM369 893.001c6 0.666992 13.667 0.333008 23 -1s18.833 -3.5 28.5 -6.5s18.667 -6.66699 27 -11s14.5 -8.83301 18.5 -13.5v-20l-226 -91l-17 19z" />
    <glyph glyph-name="afii10053" unicode="&#x404;" horiz-adv-x="643" 
d="M547 182l25.9961 0.000976562c3.33301 -18.667 6.33301 -42.167 9 -70.5s3.33398 -55.833 2.00098 -82.5c-10 -8 -22 -14.5 -36 -19.5s-28.833 -9.16699 -44.5 -12.5s-31.667 -5.66602 -48 -6.99902s-31.833 -2 -46.5 -2c-56 0 -106 7.16699 -150 21.5
s-81.167 36.166 -111.5 65.499s-53.666 66.833 -69.999 112.5s-24.5 99.834 -24.5 162.501c0 65.333 9 120.833 27 166.5s42.333 83 73 112s66.334 50.167 107.001 63.5s83.334 20 128.001 20c44 0 81 -2.83301 111 -8.5s56.333 -14.167 79 -25.5
c0 -10.667 -0.333008 -23.167 -1 -37.5s-1.66699 -29.5 -3 -45.5s-3 -31.667 -5 -47s-4 -29.333 -6 -42h-26l-52 144c-7.33301 4 -19.5 6.66699 -36.5 8s-33.833 2 -50.5 2c-32 0 -62.333 -5.83301 -91 -17.5s-54.167 -29.167 -76.5 -52.5s-40.5 -52.833 -54.5 -88.5
s-22 -77.834 -24 -126.501l328 14c8.66699 -26.667 10 -52.667 4 -78c-23.333 2 -49.166 3.83301 -77.499 5.5l-87 5c-29.667 1.66699 -58.834 3 -87.501 4s-55.334 1.5 -80.001 1.5c2 -44 9.5 -83.667 22.5 -119s30.667 -65.5 53 -90.5s49.333 -44.167 81 -57.5
s67.5 -20 107.5 -20c22 0 40.333 1.66699 55 5s24.334 7.66602 29.001 12.999z" />
    <glyph glyph-name="afii10054" unicode="&#x405;" horiz-adv-x="536" 
d="M150 69c8 -8 18.3301 -14.8311 30.9971 -20.498s31.667 -8.5 57 -8.5c21.333 0 41.333 2.83301 60 8.5s34.834 14 48.501 25s24.5 24.333 32.5 40s12 33.5 12 53.5c0 26.667 -8.16699 49 -24.5 67s-36.666 34 -60.999 48s-50.833 27.667 -79.5 41
s-55.167 29.166 -79.5 47.499s-44.666 40.333 -60.999 66s-24.5 57.834 -24.5 96.501c0 28 5 53 15 75s24.167 40.667 42.5 56s40.166 27.166 65.499 35.499s53.666 12.5 84.999 12.5c40.667 0 77.834 -3.16699 111.501 -9.5s60.167 -14.166 79.5 -23.499
c0 -11.333 -0.833008 -24.5 -2.5 -39.5s-3.66699 -30.5 -6 -46.5s-4.83301 -31.5 -7.5 -46.5s-5.33398 -28.167 -8.00098 -39.5h-26l-40 137c-12 5.33301 -27.167 9.33301 -45.5 12s-37.833 4 -58.5 4c-34 0 -61.333 -9.5 -82 -28.5s-31 -45.5 -31 -79.5
c0 -27.333 8.16699 -50.333 24.5 -69s36.833 -35.334 61.5 -50.001s51.167 -28.834 79.5 -42.501s54.833 -29.5 79.5 -47.5s45.167 -39.333 61.5 -64s24.5 -55.334 24.5 -92.001c0 -30 -5.5 -57.333 -16.5 -82s-26.833 -45.667 -47.5 -63s-46 -30.666 -76 -39.999
s-64 -14 -102 -14c-42 0 -79.667 5 -113 15s-57 20.667 -71 32c0.666992 11.333 1.83398 25 3.50098 41s3.66699 32.5 6 49.5s4.83301 33.5 7.5 49.5s5.33398 29.667 8.00098 41h26z" />
    <glyph glyph-name="afii10055" unicode="&#x406;" horiz-adv-x="352" 
d="M304 0h-256.002v29c26 12 52.667 20 80 24v593c-13.333 2.66699 -26.666 6.16699 -39.999 10.5s-26.666 9.16602 -39.999 14.499v29h256v-29c-12 -5.33301 -25 -10.166 -39 -14.499s-27.667 -7.83301 -41 -10.5v-593c14 -2.66699 28 -6 42 -10s26.667 -8.66699 38 -14
v-29z" />
    <glyph glyph-name="afii10056" unicode="&#x407;" horiz-adv-x="352" 
d="M32 789c0 16 5.16699 28 15.5 36s23.833 12 40.5 12c16 0 29.333 -4 40 -12s16 -20 16 -36c0 -15.333 -5.33301 -27 -16 -35s-24 -12 -40 -12c-16.667 0 -30.167 4 -40.5 12s-15.5 19.667 -15.5 35zM208 789c0 16 5.33301 28 16 36s24 12 40 12
c16.667 0 30.167 -4 40.5 -12s15.5 -20 15.5 -36c0 -15.333 -5.16699 -27 -15.5 -35s-23.833 -12 -40.5 -12c-16 0 -29.333 4 -40 12s-16 19.667 -16 35zM304 0h-256.002v29c26 12 52.667 20 80 24v593c-13.333 2.66699 -26.666 6.16699 -39.999 10.5
s-26.666 9.16602 -39.999 14.499v29h256v-29c-12 -5.33301 -25 -10.166 -39 -14.499s-27.667 -7.83301 -41 -10.5v-593c14 -2.66699 28 -6 42 -10s26.667 -8.66699 38 -14v-29z" />
    <glyph glyph-name="afii10057" unicode="&#x408;" horiz-adv-x="341" 
d="M39 700l254.005 -0.000976562v-29c-12 -5.33301 -24.333 -10.166 -37 -14.499s-25.667 -7.83301 -39 -10.5v-560c0 -46.667 -5.33301 -85 -16 -115s-23.834 -54.167 -39.501 -72.5s-32.334 -31.833 -50.001 -40.5s-33.834 -14.667 -48.501 -18l-11 15
c10 8.66699 19.167 18.5 27.5 29.5s15.666 24.833 21.999 41.5s11.166 37 14.499 61s5 53.333 5 88v571c-14.667 3.33301 -29 7 -43 11s-27 8.66699 -39 14v29z" />
    <glyph glyph-name="afii10058" unicode="&#x409;" horiz-adv-x="921" 
d="M372 0l0.00292969 29.0039c25.333 12 50.666 20 75.999 24v595h-187c-2.66699 -104.667 -7.5 -191.5 -14.5 -260.5s-15.833 -126 -26.5 -171s-22.834 -80.833 -36.501 -107.5s-28.5 -50.334 -44.5 -71.001c-13.333 -17.333 -29.666 -30 -48.999 -38s-38 -12 -56 -12
c-4.66699 5.33301 -9.5 12.833 -14.5 22.5s-9.66699 20 -14 31s-7.83301 22 -10.5 33s-4.33398 20.833 -5.00098 29.5l15 25l115 -21c10 16.667 19.833 38.667 29.5 66s18.334 62.166 26.001 104.499s14 93.166 19 152.499s7.5 129.333 7.5 210
c-41.333 6.66699 -75.333 16.667 -102 30v29h532v-29c-12.667 -5.33301 -26.334 -10.166 -41.001 -14.499s-30.334 -7.83301 -47.001 -10.5v-229c12 1.33301 26.667 2.83301 44 4.5s32.666 2.5 45.999 2.5c32.667 0 64 -3 94 -9s56.333 -16.667 79 -32
s40.834 -36.333 54.501 -63s20.5 -60.667 20.5 -102c0 -39.333 -7.66699 -72.833 -23 -100.5s-35.333 -50.5 -60 -68.5s-52.667 -31.167 -84 -39.5s-63 -12.5 -95 -12.5c-3.33301 0 -9.83301 0.166992 -19.5 0.5s-20.5 0.666016 -32.5 0.999023
s-24.667 0.666016 -38 0.999023s-25 0.5 -35 0.5h-123zM612.003 372.004c-16 0 -28.999 -0.168945 -38.999 -0.501953s-19.667 -1.83301 -29 -4.5v-314c3.33301 -1.33301 8.16602 -2.16602 14.499 -2.49902s13 -0.666016 20 -0.999023s13.833 -0.5 20.5 -0.5h16
c46.667 0 85 14 115 42s45 70.667 45 128c0 50 -13.5 88 -40.5 114s-67.833 39 -122.5 39z" />
    <glyph glyph-name="afii10059" unicode="&#x40a;" horiz-adv-x="994" 
d="M446 0l0.00195312 28.999c13.333 6 25.666 11 36.999 15s24 7 38 9v293h-314v-293c13.333 -2.66699 26.333 -6 39 -10s24.667 -8.66699 36 -14v-29h-253v29c26.667 10.667 54 18.667 82 24v593c-31.333 4.66699 -58.666 13 -81.999 25v29h253v-29
c-11.333 -6 -23.333 -11 -36 -15s-25.667 -7.33301 -39 -10v-248h314v248c-13.333 3.33301 -25.833 7 -37.5 11s-24.167 8.66699 -37.5 14v29h259v-29c-12.667 -5.33301 -26.334 -10.166 -41.001 -14.499s-30.334 -7.83301 -47.001 -10.5v-249c12 2 26.667 3.66699 44 5
s32.666 2 45.999 2c32.667 0 64 -3 94 -9s56.333 -16.5 79 -31.5s40.834 -35.333 54.501 -61s20.5 -58.167 20.5 -97.5c0 -38.667 -7.5 -71.167 -22.5 -97.5s-34.833 -47.666 -59.5 -63.999s-52.667 -28.166 -84 -35.499s-63.333 -11 -96 -11
c-3.33301 0 -9.83301 0.166992 -19.5 0.5s-20.5 0.666016 -32.5 0.999023s-24.667 0.666016 -38 0.999023s-25 0.5 -35 0.5h-122zM686.002 350.999c-16 0 -29.166 -0.169922 -39.499 -0.50293s-20.166 -1.83301 -29.499 -4.5v-293
c3.33301 -1.33301 8.16602 -2.16602 14.499 -2.49902s13.166 -0.666016 20.499 -0.999023s14.333 -0.5 21 -0.5h15c23.333 0 44.833 3 64.5 9s36.5 15.333 50.5 28s25 28.834 33 48.501s12 43.167 12 70.5c0 46 -13.5 81.833 -40.5 107.5s-67.5 38.5 -121.5 38.5z" />
    <glyph glyph-name="afii10060" unicode="&#x40b;" horiz-adv-x="775" 
d="M348 648l-0.000976562 -259.002c18 10 40.333 20 67 30s59 15 97 15c28 0 53.167 -2.83301 75.5 -8.5s41.333 -15.5 57 -29.5s27.667 -33 36 -57s12.5 -54.667 12.5 -92v-194c24 -4 48 -12 72 -24v-29h-168v229c0 23.333 -1.83301 44.333 -5.5 63s-9.66699 34.667 -18 48
s-19.833 23.666 -34.5 30.999s-33 11 -55 11c-28 0 -53 -4.16699 -75 -12.5s-42.333 -18.166 -61 -29.499v-287c12.667 -3.33301 24.834 -7 36.501 -11s23.167 -8.33301 34.5 -13v-29h-259v29c14 5.33301 28.5 10 43.5 14s31.167 7.33301 48.5 10v595h-153l-52 -143h-26
c-2 13.333 -3.5 28.5 -4.5 45.5l-3 52c-1 17.667 -1.83301 35 -2.5 52s-1 32.167 -1 45.5h580c0 -13.333 -0.333008 -28.166 -1 -44.499s-1.5 -33.166 -2.5 -50.499l-3 -51c-1 -16.667 -2.5 -31.667 -4.5 -45h-26l-52 139h-153z" />
    <glyph glyph-name="afii10061" unicode="&#x40c;" horiz-adv-x="646" 
d="M382 700l221.001 -0.000976562v-29c-13.333 -6 -26.333 -11 -39 -15s-25 -7.33301 -37 -10l-201 -266l57.5 -74l68 -84.5l73 -88l73.5 -84.5l48 -24v-25h-125l-34 24c-39.333 46 -78.5 95.667 -117.5 149l-113.5 162h-49v-282c30.667 -5.33301 55.667 -13.333 75 -24v-29
h-253v29c26.667 10.667 54 18.667 82 24v593c-30 4 -57.333 12.333 -82 25v29h253v-29c-10.667 -4.66699 -22.334 -9.16699 -35.001 -13.5s-26 -8.16602 -40 -11.499v-277l60 14l187 263c-13.333 3.33301 -26 7 -38 11s-23.333 8.66699 -34 14v29zM419.001 892.999
c6 0.666992 13.667 0.333008 23 -1s18.833 -3.5 28.5 -6.5s18.667 -6.66699 27 -11s14.5 -8.83301 18.5 -13.5v-20l-226 -91l-17 19z" />
    <glyph glyph-name="afii10062" unicode="&#x40e;" horiz-adv-x="660" 
d="M522 646c-33.333 6 -61.6641 14.3311 -84.9971 24.998v29h223v-29c-8.66699 -4 -19 -8.16699 -31 -12.5s-25.667 -8.5 -41 -12.5l-196 -445c-14 -36 -28 -67.833 -42 -95.5s-28.333 -50.167 -43 -67.5s-30.334 -29.833 -47.001 -37.5s-34.667 -9.5 -54 -5.5
c-4 6 -7.83301 13.667 -11.5 23s-6.83398 19 -9.50098 29s-5 19.833 -7 29.5s-3.33301 18.5 -4 26.5l15 25l103 -27c2.66699 2.66699 5.5 6.66699 8.5 12s6 11.333 9 18s5.83301 13.334 8.5 20.001s4.66699 12.667 6 18l-249 477c-12.667 3.33301 -25.334 7 -38.001 11
s-25 8.66699 -37 14v29h263v-29c-11.333 -4.66699 -23.833 -9.16699 -37.5 -13.5s-28.167 -8.16602 -43.5 -11.499l166 -331l21 -64h2l20 66zM352.002 731.998c-61.333 0 -106.166 12.166 -134.499 36.499s-42.5 54.5 -42.5 90.5
c7.33301 7.33301 18.166 12.666 32.499 15.999s28.5 5.33301 42.5 6l25 -13v-85c9.33301 -4.66699 20.833 -8.16699 34.5 -10.5s28.167 -3.5 43.5 -3.5c11.333 0 24.833 1 40.5 3s28.167 4.66699 37.5 8v88l25 13c10 0.666992 22.167 -1.16602 36.5 -5.49902
s25.833 -9.83301 34.5 -16.5c0 -18 -3.33301 -34.667 -10 -50s-17 -28.666 -31 -39.999s-32 -20.333 -54 -27s-48.667 -10 -80 -10z" />
    <glyph glyph-name="afii10145" unicode="&#x40f;" horiz-adv-x="718" 
d="M282 671c-22.667 -10 -47.667 -18.333 -75 -25v-594h304v594c-36 8 -61 16.333 -75 25v29h253v-29c-14 -6.66699 -27.833 -12.167 -41.5 -16.5s-27.167 -7.16602 -40.5 -8.49902v-593c14 -2.66699 28 -5.66699 42 -9s27.333 -8.33301 40 -15v-29h-283
c-4 -31.333 -8.83301 -62.833 -14.5 -94.5s-12.167 -63.834 -19.5 -96.501h-26c-6.66699 32.667 -12.667 64.834 -18 96.501l-16 94.5h-283v29c26.667 10.667 54 18.667 82 24v593c-18 2.66699 -33.667 6.16699 -47 10.5s-25 9.16602 -35 14.499v29h253v-29z" />
    <glyph glyph-name="afii10017" unicode="&#x410;" horiz-adv-x="683" 
d="M222 0h-222v29c24 10.667 48 18.667 72 24l253 659h29l253 -659c13.333 -2.66699 26.5 -5.66699 39.5 -9s25.167 -8.33301 36.5 -15v-29h-256v29c13.333 5.33301 27 10 41 14s27.667 7.33301 41 10l-68 183h-239l-66 -183c28 -4 56.667 -12 86 -24v-29zM222 288h202
l-79 212l-19 86h-2l-25 -88z" />
    <glyph glyph-name="afii10018" unicode="&#x411;" horiz-adv-x="600" 
d="M111 646c-15.333 2.66699 -29.666 6.16699 -42.999 10.5s-26.333 9.16602 -39 14.499v29h479c0.666992 -26.667 0 -56.5 -2 -89.5s-5 -63.5 -9 -91.5h-26l-52 129h-212v-241c12 1.33301 26.833 2.83301 44.5 4.5s33.167 2.5 46.5 2.5c32.667 0 64 -3.5 94 -10.5
s56.5 -18.5 79.5 -34.5s41.333 -37.167 55 -63.5s20.5 -58.833 20.5 -97.5c0 -36.667 -7.16699 -68.167 -21.5 -94.5s-33.5 -48.166 -57.5 -65.499s-52 -30.166 -84 -38.499s-65.667 -12.5 -101 -12.5c-3.33301 0 -9.83301 0.166992 -19.5 0.5
s-20.834 0.666016 -33.501 0.999023l-39 1c-13.333 0.333008 -25 0.5 -35 0.5h-127v29c26 12 53.333 20 82 24v593zM276 362c-16 0 -29.166 -0.333008 -39.499 -1s-20.166 -2 -29.499 -4v-304c3.33301 -1.33301 8.16602 -2.16602 14.499 -2.49902
s13.166 -0.666016 20.499 -0.999023s14.333 -0.5 21 -0.5h16c23.333 0 44.833 3.16699 64.5 9.5s36.667 16.166 51 29.499s25.5 30 33.5 50s12 43.667 12 71c0 49.333 -13.667 87.166 -41 113.499s-68.333 39.5 -123 39.5z" />
    <glyph glyph-name="afii10019" unicode="&#x412;" horiz-adv-x="615" 
d="M29 0l-0.00390625 29c26.667 12.667 54 20.667 82 24v593c-13.333 2.66699 -27 6.16699 -41 10.5s-27.667 9.16602 -41 14.499v29h106c12.667 0 24.834 0.333008 36.501 1l36.5 2c12.667 0.666992 26.334 1.33398 41.001 2.00098s31.334 1 50.001 1
c26.667 0 53.834 -2.16699 81.501 -6.5s52.667 -12.5 75 -24.5s40.5 -28.833 54.5 -50.5s21 -49.834 21 -84.501c0 -17.333 -2.66699 -34.666 -8 -51.999s-13.5 -33.5 -24.5 -48.5s-24.833 -28.167 -41.5 -39.5s-36.334 -19.666 -59.001 -24.999v-4
c20 -3.33301 39.833 -9 59.5 -17s37.167 -18.833 52.5 -32.5s27.833 -30.5 37.5 -50.5s14.5 -44 14.5 -72c0 -36 -8 -67 -24 -93s-36.833 -47.333 -62.5 -64s-54.834 -28.834 -87.501 -36.501s-65.667 -11.5 -99 -11.5c-23.333 0 -49.666 1 -78.999 3s-57.666 3 -84.999 3
h-96zM295.996 46c24 0 46.5 3.66699 67.5 11s39 17.5 54 30.5s26.833 28.667 35.5 47s13 38.166 13 59.499c0 26.667 -5.16699 48.834 -15.5 66.501s-24.333 31.667 -42 42s-38 17.5 -61 21.5s-46.833 6 -71.5 6h-75v-276c9.33301 -2.66699 20.5 -4.66699 33.5 -6
s33.5 -2 61.5 -2zM250.996 382c11.333 0 24.833 0.499023 40.5 1.49902s28.5 2.16699 38.5 3.5c30.667 10.667 55.834 27.834 75.501 51.501s29.5 51.5 29.5 83.5c0 44 -13.167 77 -39.5 99s-61.5 33 -105.5 33c-20.667 0 -38.334 -0.333008 -53.001 -1
s-26.667 -1.66699 -36 -3v-268h50z" />
    <glyph glyph-name="afii10020" unicode="&#x413;" horiz-adv-x="507" 
d="M207 53c32.667 -5.33301 64.667 -13.332 96 -23.999v-29h-274v29c26.667 10.667 54 18.667 82 24v593c-13.333 2.66699 -27 6.16699 -41 10.5s-27.667 9.16602 -41 14.499v29h468c0 -13.333 -0.333008 -28.666 -1 -45.999l-2 -54
c-0.666992 -18.667 -1.66699 -36.834 -3 -54.501s-3 -33.5 -5 -47.5h-26l-52 150h-201v-595z" />
    <glyph glyph-name="afii10021" unicode="&#x414;" horiz-adv-x="685" 
d="M669 52c0 -13.333 -0.667969 -28.833 -2.00098 -46.5s-3 -35.834 -5 -54.501s-4.16699 -37 -6.5 -55s-4.5 -33.667 -6.5 -47h-26l-42 151h-493l-42 -151h-25c-3.33301 12.667 -6.16602 28 -8.49902 46s-4.33301 36.5 -6 55.5s-3.16699 37.333 -4.5 55s-2 33.167 -2 46.5
h83c17.333 28 33.666 63.833 48.999 107.5s28.5 91.667 39.5 144s19.833 107.5 26.5 165.5s10 115.333 10 172c-17.333 3.33301 -34.5 7.33301 -51.5 12s-33.833 10.667 -50.5 18v29h531v-29c-11.333 -4.66699 -23.666 -9.16699 -36.999 -13.5s-28.333 -8.16602 -45 -11.499
v-594h114zM458.999 52v596h-193c-4 -82 -10.5 -155.167 -19.5 -219.5s-19.333 -121 -31 -170s-23.667 -90.5 -36 -124.5s-23.5 -61.333 -33.5 -82h313z" />
    <glyph glyph-name="afii10022" unicode="&#x415;" horiz-adv-x="582" 
d="M503 700c-0.666992 -26.667 -1.83203 -53.499 -3.49902 -80.499s-4.16699 -54.167 -7.5 -81.5h-26l-41 110h-218v-265h163l39 74h25c4 -66 4 -133.333 0 -202h-25l-39 76h-163v-279h230l49 120h25c4.66699 -28 8 -56.333 10 -85s2.33301 -57.667 1 -87h-493v29
c23.333 10.667 50.666 18.667 81.999 24v593c-13.333 2.66699 -27 6.16699 -41 10.5s-27.667 9.16602 -41 14.499v29h474z" />
    <glyph glyph-name="afii10024" unicode="&#x416;" horiz-adv-x="947" 
d="M424 646c-14 4 -27.001 7.99805 -39.001 11.998s-22.667 8.33301 -32 13v29h232v-29c-8 -4 -17.5 -8 -28.5 -12l-36.5 -13v-277l68 14l168 263c-13.333 4 -25.833 8.16699 -37.5 12.5l-34.5 12.5v29h220v-29c-12 -5.33301 -24.333 -10 -37 -14
s-25.334 -7.66699 -38.001 -11l-182 -266c17.333 -22 35.666 -46.667 54.999 -74l60.5 -85l66 -88c23 -29.333 46.833 -57.333 71.5 -84l47 -24v-25h-125l-34 25c-39.333 46 -75.166 95.5 -107.499 148.5l-102.5 161.5h-58v-282c11.333 -3.33301 22.5 -6.83301 33.5 -10.5
s21.5 -8.16699 31.5 -13.5v-29h-233v29c20 10.667 44 18.667 72 24v291l-60 -15l-100 -158.5c-30.667 -51 -65.667 -99.5 -105 -145.5l-34 -25h-125v25l47 24c24.667 26.667 48.667 54.334 72 83.001l67 85l60 81.5l51 72.5l-188 275c-27.333 8 -51 16.333 -71 25v29h221
v-29c-9.33301 -4.66699 -19.666 -9.16699 -30.999 -13.5s-23.666 -8.16602 -36.999 -11.499l169 -269h64v269z" />
    <glyph glyph-name="afii10025" unicode="&#x417;" horiz-adv-x="554" 
d="M241 -12c-37.333 0 -72.8301 3.66504 -106.497 10.998s-61.834 16.666 -84.501 27.999c0 10.667 0.666992 22.834 2 36.501s3.16602 28 5.49902 43s5 30 8 45s6.16699 29.167 9.5 42.5h26l42 -140c4 -2 9.66699 -3.83301 17 -5.5s15.5 -3.16699 24.5 -4.5
s18.333 -2.33301 28 -3s18.834 -1 27.501 -1c24.667 0 47.167 4 67.5 12s37.833 18.833 52.5 32.5s26 29.834 34 48.501s12 39 12 61c0 26.667 -4.16699 49 -12.5 67s-19.5 32.5 -33.5 43.5s-30.167 18.833 -48.5 23.5s-37.5 7 -57.5 7l-77 -11c-4.66699 20.667 -5 40 -1 58
h32c11.333 0 25 0.5 41 1.5s29.333 2.16699 40 3.5c30.667 10.667 54.167 27.834 70.5 51.501s24.5 51.5 24.5 83.5c0 44 -12.5 78 -37.5 102s-59.5 36 -103.5 36c-22 0 -39.5 -1.83301 -52.5 -5.5s-21.833 -8.16699 -26.5 -13.5l-52 -122h-26
c-3.33301 18 -6.16602 41 -8.49902 69s-3.16602 55.667 -2.49902 83c10 8 22.167 14.5 36.5 19.5s29.166 9.16699 44.499 12.5s31.166 5.66602 47.499 6.99902s31.5 2 45.5 2c26.667 0 53.667 -2.33301 81 -7s52.166 -13.5 74.499 -26.5s40.5 -30.667 54.5 -53
s21 -50.833 21 -85.5c0 -34 -9.83301 -65.833 -29.5 -95.5s-50.834 -52.834 -93.501 -69.501v-4c20 -3.33301 38.833 -9.16602 56.5 -17.499s33 -19.333 46 -33s23.333 -30.5 31 -50.5s11.5 -43.667 11.5 -71c0 -36 -7.16699 -67.333 -21.5 -94s-33.5 -48.667 -57.5 -66
s-51.833 -30.166 -83.5 -38.499s-64.5 -12.5 -98.5 -12.5z" />
    <glyph glyph-name="afii10026" unicode="&#x418;" horiz-adv-x="739" 
d="M282 0l-253.001 0.000976562v29c26.667 12 54 20 82 24v593c-13.333 3.33301 -27 7 -41 11s-27.667 8.66699 -41 14v29h253v-29c-10.667 -5.33301 -22 -10 -34 -14s-25.667 -7.66699 -41 -11v-434l-11 -75l48 79l293 406v24
c-15.333 3.33301 -29.833 7.16602 -43.5 11.499s-26.167 8.83301 -37.5 13.5v29h254v-29c-12 -5.33301 -25 -10 -39 -14s-28.333 -7.66699 -43 -11v-593c31.333 -5.33301 58.666 -13.333 81.999 -24v-29h-254v29c10.667 4.66699 22.334 9.16699 35.001 13.5
s26.334 7.83301 41.001 10.5v433l10 75l-44 -75l-297 -411v-22c15.333 -2.66699 29.833 -6 43.5 -10s26.167 -8.66699 37.5 -14v-29z" />
    <glyph glyph-name="afii10027" unicode="&#x419;" horiz-adv-x="739" 
d="M282 0l-253.001 0.000976562v29c26.667 12 54 20 82 24v593c-13.333 3.33301 -27 7 -41 11s-27.667 8.66699 -41 14v29h253v-29c-10.667 -5.33301 -22 -10 -34 -14s-25.667 -7.66699 -41 -11v-434l-11 -75l48 79l293 406v24
c-15.333 3.33301 -29.833 7.16602 -43.5 11.499s-26.167 8.83301 -37.5 13.5v29h254v-29c-12 -5.33301 -25 -10 -39 -14s-28.333 -7.66699 -43 -11v-593c31.333 -5.33301 58.666 -13.333 81.999 -24v-29h-254v29c10.667 4.66699 22.334 9.16699 35.001 13.5
s26.334 7.83301 41.001 10.5v433l10 75l-44 -75l-297 -411v-22c15.333 -2.66699 29.833 -6 43.5 -10s26.167 -8.66699 37.5 -14v-29zM374.999 732.001c-61.333 0 -106.166 12.166 -134.499 36.499s-42.5 54.5 -42.5 90.5c7.33301 7.33301 18.166 12.666 32.499 15.999
s28.5 5.33301 42.5 6l25 -13v-85c9.33301 -4.66699 20.833 -8.16699 34.5 -10.5s28.167 -3.5 43.5 -3.5c11.333 0 24.833 1 40.5 3s28.167 4.66699 37.5 8v88l25 13c10 0.666992 22.167 -1.16602 36.5 -5.49902s25.833 -9.83301 34.5 -16.5c0 -18 -3.33301 -34.667 -10 -50
s-17 -28.666 -31 -39.999s-32 -20.333 -54 -27s-48.667 -10 -80 -10z" />
    <glyph glyph-name="afii10028" unicode="&#x41a;" horiz-adv-x="646" 
d="M382 700l221.001 -0.000976562v-29c-13.333 -6 -26.333 -11 -39 -15s-25 -7.33301 -37 -10l-201 -266l57.5 -74l68 -84.5l73 -88l73.5 -84.5l48 -24v-25h-125l-34 24c-39.333 46 -78.5 95.667 -117.5 149l-113.5 162h-49v-282c30.667 -5.33301 55.667 -13.333 75 -24v-29
h-253v29c26.667 10.667 54 18.667 82 24v593c-30 4 -57.333 12.333 -82 25v29h253v-29c-10.667 -4.66699 -22.334 -9.16699 -35.001 -13.5s-26 -8.16602 -40 -11.499v-277l60 14l187 263c-13.333 3.33301 -26 7 -38 11s-23.333 8.66699 -34 14v29z" />
    <glyph glyph-name="afii10029" unicode="&#x41b;" horiz-adv-x="655" 
d="M202 641c-41.333 6.66699 -75.333 16.6699 -102 30.0029v29h526v-29c-23.333 -12 -50.666 -20.333 -81.999 -25v-593c31.333 -5.33301 58.666 -13.333 81.999 -24v-29h-254v29c12 5.33301 24.333 9.83301 37 13.5s25.667 7.16699 39 10.5v595h-187
c-2.66699 -104.667 -7.5 -191.5 -14.5 -260.5s-15.833 -126 -26.5 -171s-22.834 -80.833 -36.501 -107.5s-28.5 -50.334 -44.5 -71.001c-13.333 -17.333 -29.666 -30 -48.999 -38s-38 -12 -56 -12c-4.66699 5.33301 -9.5 12.833 -14.5 22.5s-9.66699 20 -14 31
s-7.83301 22 -10.5 33s-4.33398 20.833 -5.00098 29.5l15 25l115 -21c10 16.667 19.833 38.667 29.5 66s18.334 62.166 26.001 104.499s14 93.166 19 152.499s7.5 129.333 7.5 210z" />
    <glyph glyph-name="afii10030" unicode="&#x41c;" horiz-adv-x="867" 
d="M837 0l-248.001 0.00195312v29c13.333 5.33301 26.666 9.83301 39.999 13.5s27 7.16699 41 10.5v450l4 117h-8l-33 -107l-205 -513h-26l-195 513l-36 117h-9l1 -127v-450c12.667 -2.66699 25.334 -6 38.001 -10s25.334 -8.66699 38.001 -14v-29h-209v29
c12.667 5.33301 25.834 10.166 39.501 14.499s27.5 7.83301 41.5 10.5v592c-14 2.66699 -27.833 6.16699 -41.5 10.5s-27.167 9.16602 -40.5 14.499v29h205l174 -457l34 -103h1l34 105l180 455h181v-29c-12 -5.33301 -24.333 -10.166 -37 -14.499
s-25.667 -7.83301 -39 -10.5v-594c14 -2.66699 27.167 -5.83398 39.5 -9.50098s24.166 -8.16699 35.499 -13.5v-29z" />
    <glyph glyph-name="afii10031" unicode="&#x41d;" horiz-adv-x="728" 
d="M282 0l-253.002 0.00195312v29c26.667 10.667 54 18.667 82 24v593c-31.333 4.66699 -58.666 13 -81.999 25v29h253v-29c-11.333 -6 -23.333 -11 -36 -15s-25.667 -7.33301 -39 -10v-261h314v261c-14 3.33301 -27.167 7 -39.5 11s-24.166 8.66699 -35.499 14v29h253v-29
c-12 -6.66699 -25.167 -11.834 -39.5 -15.501s-28.5 -6.83398 -42.5 -9.50098v-593c15.333 -2.66699 30 -6 44 -10s26.667 -8.66699 38 -14v-29h-253v29c24 10.667 49 18.667 75 24v280h-314v-280c13.333 -2.66699 26.333 -6 39 -10s24.667 -8.66699 36 -14v-29z" />
    <glyph glyph-name="afii10032" unicode="&#x41e;" horiz-adv-x="740" 
d="M53 350c0 52 7.16699 100.167 21.5 144.5s35 82.666 62 114.999s60.167 57.5 99.5 75.5s84 27 134 27s94.667 -9 134 -27s72.5 -43.167 99.5 -75.5s47.667 -70.666 62 -114.999s21.5 -92.5 21.5 -144.5s-7.16699 -100.167 -21.5 -144.5s-35 -82.666 -62 -114.999
s-60.167 -57.5 -99.5 -75.5s-84 -27 -134 -27s-94.667 9 -134 27s-72.5 43.167 -99.5 75.5s-47.667 70.666 -62 114.999s-21.5 92.5 -21.5 144.5zM160 350c0 -42.667 4.50293 -82.834 13.5029 -120.501s22.5 -70.5 40.5 -98.5s40.667 -50.167 68 -66.5
s59.666 -24.5 96.999 -24.5c34 0 63.667 8.16699 89 24.5s46.166 38.5 62.499 66.5s28.666 60.833 36.999 98.5s12.5 77.834 12.5 120.501s-4.33301 82.834 -13 120.501s-22 70.5 -40 98.5s-40.667 50.167 -68 66.5s-59.666 24.5 -96.999 24.5
c-36.667 0 -67.834 -8.16699 -93.501 -24.5s-46.5 -38.5 -62.5 -66.5s-27.667 -60.833 -35 -98.5s-11 -77.834 -11 -120.501z" />
    <glyph glyph-name="afii10033" unicode="&#x41f;" horiz-adv-x="718" 
d="M282 0l-253 0.00292969v29c10 5.33301 21.667 10 35 14s29 7.33301 47 10v593c-13.333 2.66699 -27 6.16699 -41 10.5s-27.667 9.16602 -41 14.499v29h660v-29c-12.667 -6.66699 -26 -11.834 -40 -15.501s-28 -6.83398 -42 -9.50098v-593
c26.667 -3.33301 54 -11.333 82 -24v-29h-253v29c14.667 9.33301 39.667 17.333 75 24v595h-304v-595c26 -5.33301 51 -13.333 75 -24v-29z" />
    <glyph glyph-name="afii10034" unicode="&#x420;" horiz-adv-x="596" 
d="M207 53c18 -2 35.001 -5.16699 51.001 -9.5s31 -9.16602 45 -14.499v-29h-274v29c13.333 6.66699 27 11.667 41 15s27.667 6.33301 41 9v593c-15.333 2.66699 -29.666 6.16699 -42.999 10.5s-26.333 9.16602 -39 14.499v29h90c26.667 0 55.667 1.33301 87 4
s61.333 4 90 4c32.667 0 64.667 -3.5 96 -10.5s59.166 -18.833 83.499 -35.5s44 -38.834 59 -66.501s22.5 -62.167 22.5 -103.5c0 -39.333 -7.66699 -73 -23 -101s-35.833 -51 -61.5 -69s-54.834 -31.167 -87.501 -39.5s-66.334 -12.5 -101.001 -12.5h-15.5
c-7 0 -14.5 0.166992 -22.5 0.5s-15.667 0.833008 -23 1.5s-12.666 1.33398 -15.999 2.00098v-221zM275.001 656c-16 0 -29 -0.333984 -39 -1.00098s-19.667 -2 -29 -4v-324c3.33301 -1.33301 8.16602 -2.16602 14.499 -2.49902s13 -0.833008 20 -1.5s13.833 -1 20.5 -1h16
c23.333 0 45.333 3.16699 66 9.5s38.834 16.5 54.501 30.5s28.167 31.667 37.5 53s14 47 14 77c0 54.667 -15.5 95.667 -46.5 123s-73.833 41 -128.5 41z" />
    <glyph glyph-name="afii10035" unicode="&#x421;" horiz-adv-x="644" 
d="M547 182l25.9932 -0.000976562c3.33301 -18.667 6.33301 -42.167 9 -70.5s3.33398 -55.833 2.00098 -82.5c-10 -8 -22 -14.5 -36 -19.5s-28.833 -9.16699 -44.5 -12.5s-31.667 -5.66602 -48 -6.99902s-31.833 -2 -46.5 -2c-56 0 -106 7.16699 -150 21.5
s-81.167 36.166 -111.5 65.499s-53.666 66.833 -69.999 112.5s-24.5 99.834 -24.5 162.501c0 65.333 9 120.833 27 166.5s42.333 83 73 112s66.334 50.167 107.001 63.5s83.334 20 128.001 20c44 0 81 -2.83301 111 -8.5s56.333 -14.167 79 -25.5
c0 -10.667 -0.333008 -23.167 -1 -37.5s-1.66699 -29.5 -3 -45.5s-3 -31.667 -5 -47s-4 -29.333 -6 -42h-26l-52 144c-7.33301 4 -19.5 6.66699 -36.5 8s-33.833 2 -50.5 2c-33.333 0 -64.833 -6.16699 -94.5 -18.5s-55.667 -31.333 -78 -57s-40.166 -58 -53.499 -97
s-20 -84.833 -20 -137.5c0 -47.333 6 -90.166 18 -128.499s29.333 -71 52 -98s50.334 -47.667 83.001 -62s69.667 -21.5 111 -21.5c22 0 40.333 1.66699 55 5s24.334 7.66602 29.001 12.999z" />
    <glyph glyph-name="afii10036" unicode="&#x422;" horiz-adv-x="619" 
d="M450 0h-281v29c14.667 5.33301 29.5 10 44.5 14s31.167 7.33301 48.5 10v595h-153l-53 -143h-25c-2 13.333 -3.66699 28.5 -5 45.5s-2.5 34.333 -3.5 52s-1.83301 35 -2.5 52s-1 32.167 -1 45.5h581c0 -13.333 -0.333008 -28.333 -1 -45s-1.5 -33.834 -2.5 -51.501
l-3 -52c-1 -17 -2.5 -32.5 -4.5 -46.5h-26l-52 143h-153v-595c17.333 -3.33301 33.5 -6.66602 48.5 -9.99902s29.5 -8 43.5 -14v-29z" />
    <glyph glyph-name="afii10037" unicode="&#x423;" horiz-adv-x="660" 
d="M522 646c-33.333 6 -61.6641 14.3311 -84.9971 24.998v29h223v-29c-8.66699 -4 -19 -8.16699 -31 -12.5s-25.667 -8.5 -41 -12.5l-196 -445c-14 -36 -28 -67.833 -42 -95.5s-28.333 -50.167 -43 -67.5s-30.334 -29.833 -47.001 -37.5s-34.667 -9.5 -54 -5.5
c-4 6 -7.83301 13.667 -11.5 23s-6.83398 19 -9.50098 29s-5 19.833 -7 29.5s-3.33301 18.5 -4 26.5l15 25l103 -27c2.66699 2.66699 5.5 6.66699 8.5 12s6 11.333 9 18s5.83301 13.334 8.5 20.001s4.66699 12.667 6 18l-249 477c-12.667 3.33301 -25.334 7 -38.001 11
s-25 8.66699 -37 14v29h263v-29c-11.333 -4.66699 -23.833 -9.16699 -37.5 -13.5s-28.167 -8.16602 -43.5 -11.499l166 -331l21 -64h2l20 66z" />
    <glyph glyph-name="afii10038" unicode="&#x424;" horiz-adv-x="786" 
d="M278 700l225 0.000976562v-29c-7.33301 -4 -16.333 -8 -27 -12s-23.667 -8 -39 -12v-51c12.667 3.33301 27.167 5.33301 43.5 6s29.833 1 40.5 1c32 0 61.833 -5.5 89.5 -16.5s51.667 -27 72 -48s36.166 -46.5 47.499 -76.5s17 -64 17 -102
c0 -42.667 -7 -79.667 -21 -111s-32.5 -57.5 -55.5 -78.5s-49 -36.667 -78 -47s-58.5 -15.5 -88.5 -15.5c-3.33301 0 -8 0.166992 -14 0.5s-12.333 0.666016 -19 0.999023s-13 1 -19 2s-11 2.16699 -15 3.5v-62c13.333 -3.33301 25.333 -6.83301 36 -10.5
s20.667 -8.16699 30 -13.5v-29h-225v29c10 5.33301 21 9.83301 33 13.5s24.667 6.83398 38 9.50098v61c-12.667 -2 -26.5 -3.33301 -41.5 -4s-29.167 -1 -42.5 -1c-27.333 0 -54.333 4.5 -81 13.5s-50.834 23.167 -72.501 42.5s-39.167 44.333 -52.5 75s-20 67.667 -20 111
c0 40 6.66699 75.833 20 107.5s31.333 58.167 54 79.5s48.834 37.666 78.501 48.999s60.834 17 93.501 17c8.66699 0 19.5 -0.333008 32.5 -1s23.5 -1.66699 31.5 -3v48c-30 6.66699 -53.667 14.667 -71 24v29zM491 556.001c-9.33301 0 -18.501 -0.333008 -27.501 -1
s-18.167 -2.33398 -27.5 -5.00098v-392c6.66699 -1.33301 15 -2.16602 25 -2.49902s17.667 -0.5 23 -0.5c22 0 43.167 4 63.5 12s38.333 20.167 54 36.5s28.167 37.5 37.5 63.5s14 57 14 93c0 61.333 -14.167 109.333 -42.5 144s-68.166 52 -119.499 52zM301.999 155.001
c7.33301 0 14.833 0.165039 22.5 0.498047s16.167 1.83301 25.5 4.5v393c-16 2 -32 3 -48 3c-21.333 0 -42 -4 -62 -12s-38 -20.5 -54 -37.5s-28.833 -38.333 -38.5 -64s-14.5 -56.5 -14.5 -92.5c0 -31.333 4.33301 -59.166 13 -83.499s20.5 -44.666 35.5 -60.999
s32.833 -28.833 53.5 -37.5s43 -13 67 -13z" />
    <glyph glyph-name="afii10039" unicode="&#x425;" horiz-adv-x="670" 
d="M395 700l230 -0.000976562v-29c-11.333 -4.66699 -23.333 -9.16699 -36 -13.5s-25.667 -8.16602 -39 -11.499l-176 -271l205 -322c32 -5.33301 59.333 -13.333 82 -24v-29h-266v29c24 12 49.333 20 76 24l-158 251l-152 -252c14 -2 27.667 -4.5 41 -7.5
s26.333 -8.16699 39 -15.5v-29h-231v29c12.667 6.66699 25.167 11.667 37.5 15s24.5 6.33301 36.5 9l196 299l-188 294l-39.5 12c-13 4 -26.167 8.33301 -39.5 13v29h265v-29c-10 -4 -21.167 -8 -33.5 -12s-26.5 -8.33301 -42.5 -13l140 -226l136 226
c-27.333 6 -55 14.333 -83 25v29z" />
    <glyph glyph-name="afii10040" unicode="&#x426;" horiz-adv-x="732" 
d="M29 0l0.000976562 28.999c18.667 8.66699 46 16.667 82 24v593c-26 4 -53.333 12.333 -82 25v29h253v-29c-19.333 -8.66699 -44.333 -17 -75 -25v-594h299v594c-12 2.66699 -24.333 6 -37 10s-25.334 9 -38.001 15v29h253v-29c-26.667 -11.333 -54 -19.666 -82 -24.999
v-594h115c0 -13.333 -0.666992 -28.833 -2 -46.5s-3 -36 -5 -55s-4.16699 -37.333 -6.5 -55s-4.83301 -33.167 -7.5 -46.5h-25l-43 151h-599z" />
    <glyph glyph-name="afii10041" unicode="&#x427;" horiz-adv-x="636" 
d="M607 0h-254v29c16 7.33301 31.5 12.833 46.5 16.5s30.167 6.16699 45.5 7.5v257c-18 -10 -41.833 -20 -71.5 -30s-63.5 -15 -101.5 -15c-28 0 -53.667 2.66699 -77 8s-43.5 15 -60.5 29s-30.167 33 -39.5 57s-14 54.667 -14 92v195c-12 2 -24 5.16699 -36 9.5
s-24 9.5 -36 15.5v29h234v-29c-9.33301 -4.66699 -19.333 -9.16699 -30 -13.5s-22.667 -8.16602 -36 -11.499v-176c0 -46.667 9.5 -83.834 28.5 -111.501s50.5 -41.5 94.5 -41.5c28 0 54.667 4 80 12s47 17.667 65 29v288c-12 3.33301 -24 7.16602 -36 11.499
s-23.667 8.83301 -35 13.5v29h233v-29c-9.33301 -4.66699 -19.5 -9.16699 -30.5 -13.5s-22.833 -8.16602 -35.5 -11.499v-593c13.333 -2.66699 25.5 -6 36.5 -10s20.833 -8.66699 29.5 -14v-29z" />
    <glyph glyph-name="afii10042" unicode="&#x428;" horiz-adv-x="930" 
d="M353 700l226.003 -0.000976562v-29c-10.667 -5.33301 -21.334 -10 -32.001 -14s-21.667 -7.66699 -33 -11v-594h221v594c-23.333 6.66699 -45.333 15 -66 25v29h232v-29c-10 -4.66699 -20.833 -9.16699 -32.5 -13.5s-24.167 -8.16602 -37.5 -11.499v-593
c27.333 -5.33301 50.666 -13.333 69.999 -24v-29h-872v29c24.667 12 48.667 20 72 24v593c-12.667 3.33301 -25 7 -37 11s-23.667 8.66699 -35 14v29h233v-29c-17.333 -8.66699 -39 -17 -65 -25v-594h221v594c-13.333 4 -25.333 8.16699 -36 12.5s-20.334 8.5 -29.001 12.5
v29z" />
    <glyph glyph-name="afii10043" unicode="&#x429;" horiz-adv-x="961" 
d="M29 0l-0.00292969 28.998c10.667 5.33301 21.667 10 33 14s24.333 7.33301 39 10v593c-23.333 4 -47.333 12.333 -72 25v29h233v-29c-9.33301 -4.66699 -19.166 -9.16699 -29.499 -13.5s-22.166 -8.16602 -35.499 -11.499v-594h221v594l-34.5 11.5
c-11 3.66699 -21.167 8.16699 -30.5 13.5v29h226v-29c-8 -5.33301 -17.5 -10 -28.5 -14s-23.167 -7.66699 -36.5 -11v-594h221v594c-24 6 -46 14.333 -66 25v29h232v-29c-19.333 -12 -42.666 -20.333 -69.999 -25v-595h115c0 -13.333 -0.666992 -28.666 -2 -45.999
s-3 -35.333 -5 -54s-4.16699 -37 -6.5 -55s-4.83301 -33.667 -7.5 -47h-25l-43 151h-828z" />
    <glyph glyph-name="afii10044" unicode="&#x42a;" horiz-adv-x="722" 
d="M421 700l0.00292969 -28.998c-12 -4.66699 -25.5 -9.16699 -40.5 -13.5s-30.833 -8.16602 -47.5 -11.499v-229c12 1.33301 26.667 2.83301 44 4.5s32.666 2.5 45.999 2.5c32.667 0 64.667 -3 96 -9s59.166 -16.667 83.499 -32s43.833 -36.333 58.5 -63
s22 -60.667 22 -102c0 -39.333 -7.66699 -73 -23 -101s-35.833 -50.833 -61.5 -68.5s-55 -30.667 -88 -39s-67.167 -12.5 -102.5 -12.5c-3.33301 0 -9.83301 0.166992 -19.5 0.5s-20.5 0.666016 -32.5 0.999023s-24.667 0.666016 -38 0.999023s-25 0.5 -35 0.5h-128v29
c23.333 10.667 50.666 18.667 81.999 24v595h-129l-52 -143h-25c-2 14 -3.66699 29.667 -5 47s-2.5 34.666 -3.5 51.999s-1.66699 34.333 -2 51s-0.833008 31.667 -1.5 45h402zM402.003 372.002c-16.667 0 -29.999 -0.169922 -39.999 -0.50293s-19.667 -1.83301 -29 -4.5
v-314c3.33301 -1.33301 8.16602 -2.16602 14.499 -2.49902s13.166 -0.666016 20.499 -0.999023s14.333 -0.5 21 -0.5h15c23.333 0 45.333 3.33301 66 10s38.834 16.834 54.501 30.501s28.167 31.167 37.5 52.5s14 47 14 77c0 54 -15.5 93 -46.5 117s-73.5 36 -127.5 36z" />
    <glyph glyph-name="afii10045" unicode="&#x42b;" horiz-adv-x="844" 
d="M815 0h-254.001v29c13.333 6.66699 26.333 11.667 39 15s25.667 6.33301 39 9v593l-38.5 10c-13 3.33301 -26.167 8.33301 -39.5 15v29h254v-29c-22 -10.667 -48.667 -19 -80 -25v-593c16.667 -2.66699 31.334 -6 44.001 -10s24.667 -8.66699 36 -14v-29zM28.999 0
l0.00195312 29.001c26 12 53.333 20 82 24v593c-13.333 3.33301 -27 7 -41 11s-27.667 8.66699 -41 14v29h266v-29c-12.667 -5.33301 -26.334 -10.166 -41.001 -14.499s-30.334 -7.83301 -47.001 -10.5v-229c12 1.33301 26.667 2.83301 44 4.5s32.666 2.5 45.999 2.5
c32.667 0 64 -3 94 -9s56.333 -16.667 79 -32s40.834 -36.333 54.501 -63s20.5 -60.667 20.5 -102c0 -39.333 -7.66699 -72.833 -23 -100.5s-35.333 -50.5 -60 -68.5s-52.667 -31.167 -84 -39.5s-63 -12.5 -95 -12.5c-3.33301 0 -9.83301 0.166992 -19.5 0.5
s-20.5 0.666016 -32.5 0.999023s-24.667 0.666016 -38 0.999023s-25 0.5 -35 0.5h-129zM275.001 372.001c-16 0 -29.166 -0.168945 -39.499 -0.501953s-19.833 -1.83301 -28.5 -4.5v-314c3.33301 -1.33301 8.16602 -2.16602 14.499 -2.49902s13 -0.666016 20 -0.999023
s13.833 -0.5 20.5 -0.5h16c46.667 0 85 14 115 42s45 70.667 45 128c0 50 -13.667 88 -41 114s-68 39 -122 39z" />
    <glyph glyph-name="afii10046" unicode="&#x42c;" horiz-adv-x="596" 
d="M29 0l0.000976562 29.001c26 12 53.333 20 82 24v593c-13.333 2.66699 -27 6.16699 -41 10.5s-27.667 9.16602 -41 14.499v29h266v-29c-12 -5.33301 -25.5 -10.166 -40.5 -14.499s-30.833 -7.83301 -47.5 -10.5v-229c12 1.33301 26.667 2.83301 44 4.5
s32.666 2.5 45.999 2.5c33.333 0 65.666 -3 96.999 -9s59 -16.667 83 -32s43.333 -36.333 58 -63s22 -60.667 22 -102c0 -39.333 -7.66699 -72.833 -23 -100.5s-35.666 -50.5 -60.999 -68.5s-54.5 -31.167 -87.5 -39.5s-67.167 -12.5 -102.5 -12.5
c-3.33301 0 -9.83301 0.166992 -19.5 0.5s-20.667 0.666016 -33 0.999023l-38.5 1c-13.333 0.333008 -25 0.5 -35 0.5h-128zM276.001 372.001c-16.667 0 -29.999 -0.169922 -39.999 -0.50293s-19.667 -1.83301 -29 -4.5v-314
c3.33301 -1.33301 8.16602 -2.16602 14.499 -2.49902s13.166 -0.666016 20.499 -0.999023s14.333 -0.5 21 -0.5h15c23.333 0 45.333 3.33301 66 10s38.834 16.834 54.501 30.501s28.167 31.167 37.5 52.5s14 47 14 77c0 54 -15.5 93 -46.5 117s-73.5 36 -127.5 36z" />
    <glyph glyph-name="afii10047" unicode="&#x42d;" horiz-adv-x="633" 
d="M189 314c-3.33301 13.333 -4.99609 26.5029 -4.99609 39.5029s1.66699 25.833 5 38.5l291 -1c-5.33301 90 -29.5 157.333 -72.5 202s-101.5 67 -175.5 67c-22 0 -39.5 -1.83301 -52.5 -5.5s-22.167 -8.16699 -27.5 -13.5l-52 -122h-26
c-1.33301 8.66699 -2.66602 19 -3.99902 31s-2.5 24.667 -3.5 38s-1.66699 27.166 -2 41.499s-0.5 28.166 -0.5 41.499c10 8 22.167 14.5 36.5 19.5s29.166 9.16699 44.499 12.5s31.166 5.66602 47.499 6.99902s31.5 2 45.5 2c54 0 102.167 -6.83301 144.5 -20.5
s78.166 -35 107.499 -64s51.666 -66.333 66.999 -112s23 -100.5 23 -164.5s-9.33301 -118.833 -28 -164.5s-43.5 -83.167 -74.5 -112.5s-66.333 -51 -106 -65s-80.834 -21 -123.501 -21c-44 0 -80.833 2.83301 -110.5 8.5s-56.167 14.167 -79.5 25.5l2.5 38.5
c1 15 2.16699 30.333 3.5 46s2.83301 31.167 4.5 46.5l4.5 42h26l52 -146c7.33301 -4 19.666 -6.5 36.999 -7.5s34.333 -1.5 51 -1.5c30 0 59.333 6.33301 88 19s54.334 31.667 77.001 57s41 57 55 95s21 82.333 21 133z" />
    <glyph glyph-name="afii10048" unicode="&#x42e;" horiz-adv-x="968" 
d="M283 0l-253.997 -0.00195312v29c12.667 5.33301 25.667 10 39 14s27.666 7.33301 42.999 10v593c-26 4 -53.333 12.333 -82 25v29h254v-29l-30 -12.5c-10.667 -4.33301 -26 -8.5 -46 -12.5v-261h119c2.66699 46 10.667 89 24 129s32.166 74.667 56.499 104
s54 52.333 89 69s75.5 25 121.5 25c50 0 93.667 -9 131 -27s68.333 -43.167 93 -75.5s43.167 -70.666 55.5 -114.999s18.5 -92.5 18.5 -144.5c0 -51.333 -6.33301 -99.166 -19 -143.499s-31.5 -82.666 -56.5 -114.999s-56 -57.666 -93 -75.999s-80.167 -27.5 -129.5 -27.5
c-48.667 0 -91.167 8.66699 -127.5 26s-66.5 41.166 -90.5 71.499s-42.167 66.666 -54.5 108.999s-18.833 88.5 -19.5 138.5h-118v-280c16.667 -3.33301 31.167 -7 43.5 -11s23.166 -8.33301 32.499 -13v-29zM428.003 349.998c0 -43.333 3.5 -83.834 10.5 -121.501
s18.333 -70.5 34 -98.5s36 -50 61 -66s55.833 -24 92.5 -24c34 0 62.667 8.16699 86 24.5s42 38.5 56 66.5s24.167 60.833 30.5 98.5s9.5 77.834 9.5 120.501s-3.33301 82.834 -10 120.501s-17.834 70.5 -33.501 98.5s-36.167 50.167 -61.5 66.5s-56.666 24.5 -93.999 24.5
c-36 0 -65.667 -8.16699 -89 -24.5s-41.833 -38.5 -55.5 -66.5s-23.167 -60.833 -28.5 -98.5s-8 -77.834 -8 -120.501z" />
    <glyph glyph-name="afii10049" unicode="&#x42f;" horiz-adv-x="636" 
d="M607 700v-29.002c-10 -4.66699 -21.667 -9.16699 -35 -13.5s-29 -8.16602 -47 -11.499v-593c33.333 -4.66699 60.666 -12.667 81.999 -24v-29h-265v29c24.667 12 53.667 20 87 24v241h-101c-14.667 -24 -27.834 -47.667 -39.501 -71l-35.5 -69
c-12 -22.667 -24.667 -44.667 -38 -66s-28.666 -42.333 -45.999 -63l-34 -25h-126v25l48 24c21.333 22.667 40.333 45 57 67s32 43.333 46 64l40.5 61l39.5 59c-19.333 6 -38 14.333 -56 25s-33.667 24 -47 40s-24 34.833 -32 56.5s-12 46.5 -12 74.5
c0 36.667 8 68.167 24 94.5s37 47.833 63 64.5s55.5 28.834 88.5 36.501s66.5 11.5 100.5 11.5c13.333 0 29.833 -0.5 49.5 -1.5s39.834 -1.5 60.501 -1.5h128zM360 337.998c12 0 24.3301 0.5 36.9971 1.5s23.334 2.83301 32.001 5.5v301
c-6.66699 2 -16.167 3.33301 -28.5 4s-23.166 1 -32.499 1c-51.333 0 -92.166 -12.167 -122.499 -36.5s-45.5 -63.833 -45.5 -118.5c0 -50 13.167 -88.833 39.5 -116.5s66.5 -41.5 120.5 -41.5z" />
    <glyph glyph-name="afii10065" unicode="&#x430;" horiz-adv-x="505" 
d="M410 131c0 -14.667 0.333008 -27.3291 1 -37.9961s1.33398 -22 2.00098 -34l69 -10v-21c-16.667 -8.66699 -35.167 -16.334 -55.5 -23.001s-39.833 -11.667 -58.5 -15h-25c-6.66699 15.333 -10.667 32.166 -12 50.499s-2.33301 38.5 -3 60.5h-5
c-2.66699 -13.333 -7.83398 -26.833 -15.501 -40.5s-17.667 -25.834 -30 -36.501s-26.833 -19.334 -43.5 -26.001s-35.667 -10 -57 -10c-40.667 0 -73.834 12.333 -99.501 37s-38.5 57 -38.5 97c0 30.667 6.16699 55.834 18.5 75.501s30.5 35.167 54.5 46.5
s53.667 19.5 89 24.5s76.333 8.83301 123 11.5c2.66699 28.667 3.5 54.5 2.5 77.5s-4.66699 42.667 -11 59s-15.666 29 -27.999 38s-28.5 13.5 -48.5 13.5c-9.33301 0 -19.833 -0.5 -31.5 -1.5s-23.167 -3.83301 -34.5 -8.5l-47 -120h-26c-6.66699 20 -12.5 40.667 -17.5 62
s-8.16699 42.333 -9.5 63c25.333 15.333 53.5 27.333 84.5 36s65.5 13 103.5 13c34 0 61.167 -4.83301 81.5 -14.5s35.833 -22.167 46.5 -37.5s17.667 -32.333 21 -51s5 -37.334 5 -56.001c0 -40 -0.833008 -78.5 -2.5 -115.5s-2.5 -72.5 -2.5 -106.5zM217 50.0049
c16.667 0 31.333 3.33301 44 10s23.334 14.667 32.001 24s15.667 18.833 21 28.5s9 17.834 11 24.501v105c-38.667 0 -70.334 -2 -95.001 -6s-44 -10.333 -58 -19s-23.667 -19.5 -29 -32.5s-8 -27.833 -8 -44.5c0 -28.667 7.33301 -50.834 22 -66.501s34.667 -23.5 60 -23.5
z" />
    <glyph glyph-name="afii10066" unicode="&#x431;" horiz-adv-x="541" 
d="M41 262c0 85.333 6.99902 156.83 20.999 214.497s35.167 104 63.5 139s64.166 59.833 107.499 74.5s94 22 152 22l65 50h26c-0.666992 -12 -2 -24.833 -4 -38.5s-4.5 -26.667 -7.5 -39s-6 -23.166 -9 -32.499s-5.5 -16 -7.5 -20c-61.333 0 -113.333 -3 -156 -9
s-78 -18.333 -106 -37s-49.167 -45.667 -63.5 -81s-23.833 -82 -28.5 -140h5c8 17.333 18.833 34 32.5 50s29.334 30 47.001 42s36.5 21.667 56.5 29s40.333 11 61 11c136 0 204 -81.667 204 -245c0 -38.667 -5.33301 -74.167 -16 -106.5s-26.334 -60.166 -47.001 -83.499
s-45.667 -41.5 -75 -54.5s-62.333 -19.5 -99 -19.5c-33.333 0 -63.666 6.16699 -90.999 18.5s-50.666 30.333 -69.999 54s-34.333 52.334 -45 86.001s-16 72.167 -16 115.5zM134.999 261.997c0 -42 3.83203 -77.502 11.499 -106.502s18.167 -52.667 31.5 -71
s28.833 -31.666 46.5 -39.999s36.167 -12.5 55.5 -12.5c40 0 70.167 18 90.5 54s30.5 87.333 30.5 154c0 68 -13 117.667 -39 149s-62 47 -108 47c-17.333 0 -36.166 -5.33301 -56.499 -16s-37.5 -25 -51.5 -43c-3.33301 -16.667 -6 -34.167 -8 -52.5s-3 -39.166 -3 -62.499
z" />
    <glyph glyph-name="afii10067" unicode="&#x432;" horiz-adv-x="528" 
d="M481 146c0 -26.667 -5.99902 -49.501 -17.999 -68.501s-28.167 -34.5 -48.5 -46.5s-43.833 -20.833 -70.5 -26.5s-54.667 -8.5 -84 -8.5c-21.333 0 -38.333 0.166992 -51 0.5s-23.334 0.833008 -32.001 1.5s-16 1.16699 -22 1.5s-12.667 0.5 -20 0.5h-96v25
c20.667 10.667 42.667 18.667 66 24v401c-25.333 4.66699 -47.333 12.667 -66 24v26h90c16 0 29.667 0.166992 41 0.5s22 0.833008 32 1.5s20 1.16699 30 1.5s21 0.5 33 0.5c58.667 0 104.334 -8.83301 137.001 -26.5s49 -48.5 49 -92.5c0 -16 -3.33301 -30.333 -10 -43
s-15.334 -23.667 -26.001 -33s-22.667 -17.166 -36 -23.499s-26.333 -10.833 -39 -13.5c18.667 -1.33301 36.5 -5 53.5 -11s32 -14.167 45 -24.5s23.333 -23 31 -38s11.5 -32.5 11.5 -52.5zM195.001 42.999c9.33301 -2 21.168 -3 35.501 -3h35.5
c39.333 0 68.666 8.5 87.999 25.5s29 41.167 29 72.5c0 32.667 -11.667 57.167 -35 73.5s-53.333 24.5 -90 24.5h-63v-193zM195.003 265.999l110.998 10c12 6 24.167 17.167 36.5 33.5s18.5 37.833 18.5 64.5c0 32.667 -9.83301 55.167 -29.5 67.5s-48.5 18.5 -86.5 18.5
c-7.33301 0 -15.666 -0.166992 -24.999 -0.5s-17.666 -1.5 -24.999 -3.5v-190z" />
    <glyph glyph-name="afii10068" unicode="&#x433;" horiz-adv-x="431" 
d="M412 500c-0.666992 -26 -1.83301 -53 -3.5 -81s-4.5 -55.667 -8.5 -83h-26l-44 120h-135v-407c38 -7.33301 68 -15.333 90 -24v-25h-246v25c11.333 6.66699 22.333 11.667 33 15s21.667 6.33301 33 9v402c-24.667 4 -46.667 11.667 -66 23v26h373z" />
    <glyph glyph-name="afii10069" unicode="&#x434;" horiz-adv-x="573" 
d="M90 0l-45.001 -147.999h-26c-3.33301 32.667 -5.83301 65.667 -7.5 99s-2.5 66 -2.5 98h68c8 9.33301 17 24 27 44s19.5 45.833 28.5 77.5s16.667 69.667 23 114s9.5 96.166 9.5 155.499c-14 4 -26.667 9 -38 15s-21.666 12.333 -30.999 19v26h425v-26
c-18 -12 -40 -20 -66 -24v-401h89c0.666992 -32 0 -64.667 -2 -98s-5 -66.333 -9 -99h-25l-45 148h-373zM219.999 450.001c0 -60 -3.00195 -112.332 -9.00195 -156.999s-13.167 -82.834 -21.5 -114.501s-17.166 -58 -26.499 -79s-17.666 -37.833 -24.999 -50.5h227v401h-145
z" />
    <glyph glyph-name="afii10070" unicode="&#x435;" horiz-adv-x="503" 
d="M446 70c-5.33301 -11.333 -13.668 -22.002 -25.001 -32.002s-24.333 -18.667 -39 -26s-30.667 -13.166 -48 -17.499s-35 -6.5 -53 -6.5c-39.333 0 -74 6.16699 -104 18.5s-55 30 -75 53s-35.167 50.5 -45.5 82.5s-15.5 68 -15.5 108c0 85.333 19.667 150.333 59 195
s95 67 167 67c23.333 0 46.333 -3.16699 69 -9.5s42.834 -16.833 60.501 -31.5s32 -34.167 43 -58.5s16.5 -54.5 16.5 -90.5c0 -11.333 -0.5 -22.833 -1.5 -34.5s-2.83301 -24.167 -5.5 -37.5h-312c0 -28 3.5 -54.167 10.5 -78.5s17.5 -45.5 31.5 -63.5
s31.667 -32.167 53 -42.5s46.333 -15.5 75 -15.5c23.333 0 47 3.33301 71 10s42 15.334 54 26.001zM262.998 467.998c-38 0 -67 -12.832 -87 -38.499s-32 -70.834 -36 -135.501h220c0.666992 6 1.16699 11.833 1.5 17.5s0.5 11.167 0.5 16.5c0 42.667 -8 76.667 -24 102
s-41 38 -75 38z" />
    <glyph glyph-name="afii10072" unicode="&#x436;" horiz-adv-x="722" 
d="M529 500l173 0.00195312v-26c-11.333 -8 -30.333 -16 -57 -24c-21.333 -29.333 -43.333 -58 -66 -86l-67 -84l32 -45l41.5 -58.5l47 -64.5l48.5 -63l41 -24v-25h-106l-28 23c-11.333 15.333 -23.5 33.166 -36.5 53.499l-38.5 61.5l-35 57.5
c-10.667 17.667 -19.334 31.5 -26.001 41.5h-48v-188c20.667 -5.33301 40.667 -13.333 60 -24v-25h-201v25c9.33301 4.66699 18.5 9 27.5 13s18.5 7.66699 28.5 11v194l-55 -10c-6 -9.33301 -14 -23 -24 -41l-32.5 -58c-11.667 -20.667 -23.834 -41 -36.501 -61
s-25 -36.667 -37 -50l-30 -23h-104v25l46 24c16.667 19.333 32.834 39.666 48.501 60.999l44.5 62l38.5 56.5c11.667 17.667 22.167 32.5 31.5 44.5c-25.333 28.667 -49.666 57.834 -72.999 87.501s-45.666 59.5 -66.999 89.5c-17.333 4 -34 12 -50 24v26h173v-26
c-12.667 -9.33301 -29.334 -17.333 -50.001 -24c18 -32 37.5 -62.167 58.5 -90.5l66.5 -90.5h52v181c-22 4.66699 -40.667 12.667 -56 24v26h194v-26c-6.66699 -5.33301 -14.167 -10 -22.5 -14s-18.5 -7.33301 -30.5 -10v-187l55 10l63.5 88.5c19 27 37.833 56.5 56.5 88.5
c-9.33301 3.33301 -18 6.66602 -26 9.99902s-16 8 -24 14v26z" />
    <glyph glyph-name="afii10073" unicode="&#x437;" horiz-adv-x="474" 
d="M205 35c20.667 0 38.499 3.33203 53.499 9.99902s27.167 15.334 36.5 26.001s16.333 22.834 21 36.501s7 27.5 7 41.5c0 32 -6.83301 53.667 -20.5 65s-32.167 19 -55.5 23l-94 -15c-2.66699 8.66699 -4.16699 17.667 -4.5 27s1.16699 18.333 4.5 27h102
c6 2.66699 12.167 6.83398 18.5 12.501s12.333 12.667 18 21s10.334 18.166 14.001 29.499s5.5 24 5.5 38c0 32 -8.83301 55.167 -26.5 69.5s-40.834 21.5 -69.501 21.5c-13.333 0 -25.5 -0.833008 -36.5 -2.5s-18.167 -3.16699 -21.5 -4.5l-45 -113h-25
c-7.33301 22 -12.666 44 -15.999 66s-5.33301 43.667 -6 65c13.333 7.33301 33.666 14.666 60.999 21.999s62.333 11 105 11c54 0 95.833 -9.83301 125.5 -29.5s44.5 -48.834 44.5 -87.501c0 -16 -3.33301 -30.667 -10 -44s-15.167 -25.333 -25.5 -36s-22 -19.667 -35 -27
s-25.833 -13 -38.5 -17c36.667 -3.33301 67.334 -15.166 92.001 -35.499s37 -49.166 37 -86.499c0 -53.333 -18.333 -93.5 -55 -120.5s-85.334 -40.5 -146.001 -40.5c-38.667 0 -72.5 5.66699 -101.5 17s-53.167 25.666 -72.5 42.999l18 67h20
c8.66699 -9.33301 18.334 -20.5 29.001 -33.5l32 -38.5c14 -5.33301 34 -8 60 -8z" />
    <glyph glyph-name="afii10074" unicode="&#x438;" horiz-adv-x="612" 
d="M39 500h212v-26c-7.33301 -4 -15.833 -8 -25.5 -12s-21.167 -8 -34.5 -12v-274l-11 -93h5l39 75l214 342h135v-26c-21.333 -12 -43.333 -20 -66 -24v-401c12.667 -3.33301 24.667 -6.83301 36 -10.5s21.333 -8.16699 30 -13.5v-25h-212v25
c18.667 10.667 38.667 18.667 60 24v286l10 79h-5l-38 -75l-212 -339h-137v25c11.333 5.33301 22.333 9.83301 33 13.5s21.667 7.16699 33 10.5v401c-26 4 -48 12 -66 24v26z" />
    <glyph glyph-name="afii10075" unicode="&#x439;" horiz-adv-x="612" 
d="M39 500h212v-26c-7.33301 -4 -15.833 -8 -25.5 -12s-21.167 -8 -34.5 -12v-274l-11 -93h5l39 75l214 342h135v-26c-21.333 -12 -43.333 -20 -66 -24v-401c12.667 -3.33301 24.667 -6.83301 36 -10.5s21.333 -8.16699 30 -13.5v-25h-212v25
c18.667 10.667 38.667 18.667 60 24v286l10 79h-5l-38 -75l-212 -339h-137v25c11.333 5.33301 22.333 9.83301 33 13.5s21.667 7.16699 33 10.5v401c-26 4 -48 12 -66 24v26zM316 560c-33.333 0 -60.6709 3.5 -82.0039 10.5s-38.333 16.167 -51 27.5s-21.5 24.5 -26.5 39.5
s-7.5 30.167 -7.5 45.5c10.667 8.66699 22.334 15 35.001 19s26 6.66699 40 8l25 -13v-89c9.33301 -4 20.333 -6.83301 33 -8.5s24.334 -2.5 35.001 -2.5c6.66699 0 17.334 0.666992 32.001 2s26.667 3.33301 36 6v92l25 13c14 -1.33301 27.167 -4.33301 39.5 -9
s22.5 -10.667 30.5 -18c0 -15.333 -2.66699 -30.5 -8 -45.5s-14.166 -28.167 -26.499 -39.5s-29 -20.5 -50 -27.5s-47.5 -10.5 -79.5 -10.5z" />
    <glyph glyph-name="afii10076" unicode="&#x43a;" horiz-adv-x="541" 
d="M325 500l193.003 0.000976562v-26c-6.66699 -5.33301 -15.5 -10 -26.5 -14s-24.5 -8.66699 -40.5 -14l-72 -83c-25.333 -28 -52 -56 -80 -84l46.5 -53l49.5 -60l50 -61c16.667 -20 33 -38.667 49 -56l47 -24v-25h-117l-32 23c-30 36 -57.333 72 -82 108l-75 106h-40v-188
c13.333 -3.33301 25.5 -6.83301 36.5 -10.5s20.5 -8.16699 28.5 -13.5v-25h-221v25c18 10.667 40 18.667 66 24v401c-23.333 4.66699 -45.333 12.667 -66 24v26h205v-26c-6.66699 -4.66699 -13.834 -9 -21.501 -13s-16.834 -7.66699 -27.501 -11v-187l46 10l76 86
c24 26.667 46.333 55.667 67 87l-31.5 13.5c-9.66699 4.33301 -18.834 9.16602 -27.501 14.499v26z" />
    <glyph glyph-name="afii10077" unicode="&#x43b;" horiz-adv-x="543" 
d="M103 86c9.33301 16 17.6689 37.3359 25.002 64.0029s13.5 56 18.5 88s8.83301 65.5 11.5 100.5s4 68.833 4 101.5c-13.333 4 -25.5 9 -36.5 15s-21.167 12.333 -30.5 19v26h409v-26c-21.333 -12 -43.333 -20 -66 -24v-401c14 -3.33301 26.333 -7 37 -11
s20.334 -8.33301 29.001 -13v-25h-215v25c16 11.333 35.667 19.333 59 24v407h-132c-0.666992 -35.333 -2.66699 -72.833 -6 -112.5s-8.33301 -78.667 -15 -117s-15.334 -74.333 -26.001 -108s-23.667 -61.834 -39 -84.501c-12.667 -19.333 -26.334 -32.833 -41.001 -40.5
s-28.334 -10.167 -41.001 -7.5c-10 11.333 -19.5 26.166 -28.5 44.499s-14.167 35.166 -15.5 50.499l14 25z" />
    <glyph glyph-name="afii10078" unicode="&#x43c;" horiz-adv-x="734" 
d="M207 0h-175.999v25c22 10.667 44 18.667 66 24l15 391c-14 5.33301 -26.333 11 -37 17l-29 17v26h195l103 -292l19 -69h3l21 70l107 291h189v-26c-8.66699 -5.33301 -18.334 -10 -29.001 -14s-23 -7.33301 -37 -10l20 -401c22 -4 44 -12 66 -24v-25h-212v25
c6.66699 3.33301 14.667 7 24 11s21.333 8.33301 36 13l-20 405h-8l-164 -454h-27l-162 454h-8l-15 -405c24 -7.33301 44 -15.333 60 -24v-25z" />
    <glyph glyph-name="afii10079" unicode="&#x43d;" horiz-adv-x="612" 
d="M254 0h-214.997v25c9.33301 5.33301 19.666 9.83301 30.999 13.5s23 7.16699 35 10.5v401c-12 3.33301 -23.667 6.83301 -35 10.5s-21.666 8.16699 -30.999 13.5v26h215v-26c-15.333 -9.33301 -35 -17.333 -59 -24v-175h222v175c-23.333 4 -43.333 12 -60 24v26h216v-26
c-18 -11.333 -40 -19.333 -66 -24v-401c12 -2.66699 23.667 -5.66699 35 -9s21.666 -8.33301 30.999 -15v-25h-216v25c16.667 12 36.667 20 60 24v182h-222v-182c13.333 -2.66699 24.666 -6 33.999 -10s17.666 -8.66699 24.999 -14v-25z" />
    <glyph glyph-name="afii10080" unicode="&#x43e;" horiz-adv-x="553" 
d="M41 250c0 42 5.49902 79.1689 16.499 111.502s26.833 59.666 47.5 81.999s45.5 39.333 74.5 51s61.167 17.5 96.5 17.5c41.333 0 77 -6.33301 107 -19s54.5 -30.5 73.5 -53.5s33 -50.5 42 -82.5s13.5 -67.667 13.5 -107c0 -84 -21.333 -148.667 -64 -194
s-100 -68 -172 -68c-40 0 -74.667 6.16699 -104 18.5s-53.666 30 -72.999 53s-33.833 50.667 -43.5 83s-14.5 68.166 -14.5 107.499zM136.999 250.002c0 -30 2.83301 -58.332 8.5 -84.999s14.667 -49.834 27 -69.501s28.5 -35.167 48.5 -46.5s44 -17 72 -17
c36 0 65.5 17.667 88.5 53s34.5 90.333 34.5 165c0 30.667 -2.83301 59.167 -8.5 85.5s-14.5 49.333 -26.5 69s-27.333 35.167 -46 46.5s-41 17 -67 17c-39.333 0 -71 -17.667 -95 -53s-36 -90.333 -36 -165z" />
    <glyph glyph-name="afii10081" unicode="&#x43f;" horiz-adv-x="611" 
d="M254 0h-214.999v25c12.667 7.33301 24.334 12.833 35.001 16.5s21 6.16699 31 7.5v401c-14 3.33301 -26.667 7 -38 11s-20.666 8.33301 -27.999 13v26h533v-26c-8.66699 -5.33301 -18.334 -10.333 -29.001 -15s-23 -7.66699 -37 -9v-401c22.667 -4 44.667 -12 66 -24v-25
h-215v25c6.66699 4.66699 14.5 9 23.5 13s20.833 7.66699 35.5 11v407h-221v-407c13.333 -4 24.666 -8 33.999 -12s17.666 -8 24.999 -12v-25z" />
    <glyph glyph-name="afii10082" unicode="&#x440;" horiz-adv-x="566" 
d="M253 -200h-221.999v25c22.667 10.667 44.667 18.667 66 24v593l-66 8v26c21.333 9.33301 43.166 16.833 65.499 22.5s44.166 10.167 65.499 13.5h25v-112h1c13.333 34 32 61.167 56 81.5s55.333 30.5 94 30.5c59.333 0 105.333 -19.667 138 -59s49 -103.333 49 -192
c0 -42 -5.5 -80 -16.5 -114s-26.667 -62.667 -47 -86s-45 -41.333 -74 -54s-61.167 -19 -96.5 -19c-24.667 0 -44 1.5 -58 4.5s-29.333 8.16699 -46 15.5v-159c10.667 -1.33301 21.334 -3.83301 32.001 -7.5s22 -9.16699 34 -16.5v-25zM306.001 450
c-32.667 0 -58.665 -10.334 -77.998 -31.001s-33 -49 -41 -85v-280c12 -7.33301 25.5 -12.833 40.5 -16.5s34.5 -5.5 58.5 -5.5c22 0 41.833 5.66699 59.5 17s32.667 27.333 45 48s21.833 44.834 28.5 72.501s10 58.167 10 91.5c0 27.333 -2.16699 52.5 -6.5 75.5
s-11.333 43 -21 60s-22.334 30.167 -38.001 39.5s-34.834 14 -57.501 14z" />
    <glyph glyph-name="afii10083" unicode="&#x441;" horiz-adv-x="466" 
d="M427 70c-12 -23.333 -31.5 -42.832 -58.5 -58.499s-58.5 -23.5 -94.5 -23.5c-39.333 0 -73.5 6.16699 -102.5 18.5s-53.167 30 -72.5 53s-33.833 50.667 -43.5 83s-14.5 68.166 -14.5 107.499c0 84.667 20.667 149.5 62 194.5s97.666 67.5 168.999 67.5
c32.667 0 61.834 -2.83301 87.501 -8.5s47.5 -13.167 65.5 -22.5c-2 -22 -5.66699 -46.667 -11 -74s-12 -50 -20 -68h-27l-42 119c-4.66699 3.33301 -10 5.83301 -16 7.5s-16 2.5 -30 2.5c-45.333 0 -80.333 -16.5 -105 -49.5s-37 -88.833 -37 -167.5
c0 -25.333 3.5 -50 10.5 -74s17.667 -45.5 32 -64.5s32.333 -34.167 54 -45.5s46.834 -17 75.501 -17c23.333 0 43.666 3.33301 60.999 10s32 14.667 44 24z" />
    <glyph glyph-name="afii10084" unicode="&#x442;" horiz-adv-x="496" 
d="M359 0l-221.999 -0.000976562v25c20.667 10.667 42.667 18.667 66 24v407h-93l-44 -120h-26c-3.33301 28.667 -6 56.834 -8 84.501s-3.33301 54.167 -4 79.5h440c-0.666992 -24 -1.83398 -50.167 -3.50098 -78.5s-4.5 -56.833 -8.5 -85.5h-26l-44 120h-93v-407
c31.333 -8 53.333 -16 66 -24v-25z" />
    <glyph glyph-name="afii10085" unicode="&#x443;" horiz-adv-x="505" 
d="M42 450c-10 2.66699 -19.168 6 -27.501 10s-16.833 8.66699 -25.5 14v26h209v-25c-14 -9.33301 -33 -17.666 -57 -24.999l128 -296l19 -62h2l15 63l95 295c-20 4 -38.333 12 -55 24v26h171v-26c-14 -9.33301 -33 -17.333 -57 -24l-156 -450
c-16 -42.667 -31.167 -77.167 -45.5 -103.5s-28.666 -47.166 -42.999 -62.499s-29 -26.5 -44 -33.5s-31.167 -12.167 -48.5 -15.5c-7.33301 12.667 -13.833 26.667 -19.5 42s-10.5 30 -14.5 44l13 24h104c4 5.33301 7.5 10.5 10.5 15.5s6.16699 11.167 9.5 18.5
s7 16.666 11 27.999s8.66699 25.666 14 42.999z" />
    <glyph glyph-name="afii10086" unicode="&#x444;" horiz-adv-x="723" 
d="M471 -200l-218.003 0.00292969v25c18.667 10.667 40.667 18.667 66 24v176c-11.333 -11.333 -23.833 -20.333 -37.5 -27s-30.167 -10 -49.5 -10c-28 0 -53.833 4.83301 -77.5 14.5s-43.834 24.5 -60.501 44.5s-29.667 45.333 -39 76s-14 67 -14 109
c0 95.333 18.333 165.833 55 211.5s85.667 68.5 147 68.5c16.667 0 31.834 -2.83301 45.501 -8.5s23.834 -13.5 30.501 -23.5v202l-76 8v26c19.333 8.66699 41.5 16 66.5 22s48.5 10.667 70.5 14h25v-278c10 12 23.333 21.333 40 28s34.334 10 53.001 10
c56.667 0 101.667 -19 135 -57s50 -96.333 50 -175c0 -50.667 -5 -94.334 -15 -131.001s-23.667 -67 -41 -91s-38.166 -41.667 -62.499 -53s-50.833 -17 -79.5 -17c-16 0 -31.333 2.66699 -46 8s-26 12.666 -34 21.999v-169c12.667 -2 24.5 -4.83301 35.5 -8.5
s21.167 -8.83398 30.5 -15.501v-25zM252.997 37.0029c11.333 0 22.832 1.49902 34.499 4.49902s22.167 9.16699 31.5 18.5v385c-8 5.33301 -16.833 9.5 -26.5 12.5s-23.167 4.5 -40.5 4.5c-16.667 0 -32.167 -3.66699 -46.5 -11s-26.666 -18.666 -36.999 -33.999
s-18.5 -35 -24.5 -59s-9 -53 -9 -87c0 -45.333 3 -83 9 -113s14.333 -54 25 -72s23.167 -30.667 37.5 -38s29.833 -11 46.5 -11zM473.996 462.002c-13.333 0 -25.998 -1.49805 -37.998 -4.49805s-22.667 -8.5 -32 -16.5v-386c8 -6.66699 17.167 -11.334 27.5 -14.001
s23.5 -4 39.5 -4c15.333 0 30.166 3.83301 44.499 11.5s27 19.667 38 36s19.667 37.666 26 63.999s9.5 58.5 9.5 96.5c0 40.667 -2.5 75 -7.5 103s-12.167 50.333 -21.5 67s-21.333 28.667 -36 36s-31.334 11 -50.001 11z" />
    <glyph glyph-name="afii10087" unicode="&#x445;" horiz-adv-x="519" 
d="M298 268l158.001 -219.001c9.33301 -3.33301 18.5 -6.83301 27.5 -10.5s17.5 -8.16699 25.5 -13.5v-25h-205v24l26 14.5c8 4.33301 16 7.83301 24 10.5l-111 164l-112 -164c9.33301 -3.33301 18 -7 26 -11s16 -8.33301 24 -13v-25h-171v25
c18.667 11.333 37.334 19.333 56.001 24l149 199l-150 202c-9.33301 3.33301 -17.833 6.83301 -25.5 10.5s-15.5 8.16699 -23.5 13.5v26h201v-25c-8 -5.33301 -15.833 -10.166 -23.5 -14.499s-16.167 -7.83301 -25.5 -10.5l104 -150l102 150
c-22.667 7.33301 -39.334 15.333 -50.001 24v26h167v-26c-12.667 -8.66699 -31.334 -16.667 -56.001 -24z" />
    <glyph glyph-name="afii10088" unicode="&#x446;" horiz-adv-x="614" 
d="M39 0l0.00195312 25c18 10.667 40 18.667 66 24v401c-25.333 4 -47.333 12 -66 24v26h215v-26c-15.333 -9.33301 -35 -17.333 -59 -24v-406h211v406c-18 4 -37.667 12 -59 24v26h215v-26c-8.66699 -4.66699 -18.334 -9 -29.001 -13s-23 -7.66699 -37 -11v-406h89
c-1.33301 -32 -2.83301 -64 -4.5 -96s-3.83398 -64 -6.50098 -96h-25l-45 148h-465z" />
    <glyph glyph-name="afii10089" unicode="&#x447;" horiz-adv-x="558" 
d="M15 500l215 0.000976562v-26c-6.66699 -4.66699 -15 -9.16699 -25 -13.5s-21.333 -7.83301 -34 -10.5v-120c0 -31.333 6.66699 -56.5 20 -75.5s35.666 -28.5 66.999 -28.5c18.667 0 36.834 2.83301 54.501 8.5s34.5 13.167 50.5 22.5v193c-20 4 -39.667 12 -59 24v26h215
v-26c-18 -11.333 -40 -19.333 -66 -24v-401c13.333 -3.33301 25.333 -6.83301 36 -10.5s20.667 -8.16699 30 -13.5v-25h-236v25c27.333 11.333 54 19.333 80 24v179c-16 -17.333 -35 -31.5 -57 -42.5s-49.667 -16.5 -83 -16.5c-45.333 0 -80.333 12.667 -105 38
s-37 59.666 -37 102.999v140c-25.333 4.66699 -47.333 12.667 -66 24v26z" />
    <glyph glyph-name="afii10090" unicode="&#x448;" horiz-adv-x="832" 
d="M637 44l-0.000976562 406c-21.333 6 -39.333 14 -54 24v26h210v-26c-9.33301 -5.33301 -19.333 -10 -30 -14s-22.667 -7.33301 -36 -10v-401c24.667 -5.33301 46.667 -13.333 66 -24v-25h-754v25c18.667 10.667 40.667 18.667 66 24v401
c-11.333 1.33301 -22.333 3.83301 -33 7.5s-21.667 9.16699 -33 16.5v26h210v-26c-17.333 -10 -35.333 -18 -54 -24v-406h176v406c-10.667 3.33301 -21 6.83301 -31 10.5s-19.667 8.16699 -29 13.5v26h204v-26c-5.33301 -4 -12.166 -8 -20.499 -12s-19.5 -8 -33.5 -12v-406
h176z" />
    <glyph glyph-name="afii10091" unicode="&#x449;" horiz-adv-x="844" 
d="M39 0l-0.00195312 24.999c18.667 10.667 40.667 18.667 66 24v401c-13.333 2.66699 -25.333 6 -36 10s-20.667 8.66699 -30 14v26h210v-26c-6.66699 -4.66699 -14.5 -9 -23.5 -13s-19.167 -7.66699 -30.5 -11v-406h176v406c-10 2.66699 -20.167 6 -30.5 10
s-20.166 8.66699 -29.499 14v26h204v-26c-7.33301 -5.33301 -15.666 -10 -24.999 -14s-19 -7.33301 -29 -10v-406h176v406c-21.333 6 -39.333 14 -54 24v26h210v-26c-9.33301 -5.33301 -19.333 -9.83301 -30 -13.5s-22.667 -7.16699 -36 -10.5v-406h89
c-0.666992 -32 -2.16699 -64.167 -4.5 -96.5s-4.5 -64.166 -6.5 -95.499h-26l-45 148h-695z" />
    <glyph glyph-name="afii10092" unicode="&#x44a;" horiz-adv-x="577" 
d="M264 43c9.33301 -0.666992 18.1699 -1.33203 26.5029 -1.99902s17.166 -1 26.499 -1c39.333 0 69.833 9.66699 91.5 29s32.5 49.666 32.5 90.999c0 18.667 -3 34.5 -9 47.5s-14.167 23.5 -24.5 31.5s-22.333 13.833 -36 17.5s-27.834 5.5 -42.501 5.5
c-22.667 0 -44.334 -2 -65.001 -6v-213zM324.004 500.002l0.000976562 -25.998c-8 -5.33301 -17 -9.83301 -27 -13.5s-21 -7.16699 -33 -10.5v-154c11.333 1.33301 24.166 3 38.499 5s34.833 3 61.5 3c54.667 0 97.5 -11.667 128.5 -35s46.5 -60 46.5 -110
c0 -26.667 -5 -50.167 -15 -70.5s-24.167 -37.333 -42.5 -51s-40 -24 -65 -31s-52.5 -10.5 -82.5 -10.5c-18 0 -38.167 0.666992 -60.5 2s-46.166 2 -71.499 2h-94v25c18.667 10.667 40.667 18.667 66 24v407h-78l-44 -120h-26c-3.33301 25.333 -5.83301 52.666 -7.5 81.999
s-2.83398 56.666 -3.50098 81.999h309z" />
    <glyph glyph-name="afii10093" unicode="&#x44b;" horiz-adv-x="746" 
d="M195 296c11.333 1.33301 24 3.00098 38 5.00098s34.333 3 61 3c50 0 90.167 -11.667 120.5 -35s45.5 -60 45.5 -110c0 -26.667 -4.83301 -50.167 -14.5 -70.5s-23.167 -37.333 -40.5 -51s-38 -24 -62 -31s-50.333 -10.5 -79 -10.5c-18 0 -38.167 0.666992 -60.5 2
s-46.166 2 -71.499 2h-93v25c11.333 6.66699 22.333 11.667 33 15s21.667 6.33301 33 9v401c-12.667 2 -24.334 5.16699 -35.001 9.5s-21 9.16602 -31 14.499v26h216v-26c-15.333 -9.33301 -35.333 -17.333 -60 -24v-154zM195 43.001l26.002 -2
c8.66699 -0.666992 17.667 -1 27 -1c75.333 0 113 40 113 120c0 18.667 -2.83301 34.5 -8.5 47.5s-13.334 23.333 -23.001 31s-20.834 13.167 -33.501 16.5s-26 5 -40 5c-9.33301 0 -19.333 -0.166992 -30 -0.5s-21 -1.5 -31 -3.5v-213zM707.002 0.000976562h-214.999v25
c9.33301 4.66699 18.666 9 27.999 13s19.666 7.66699 30.999 11v401c-25.333 4.66699 -45.333 12.667 -60 24v26h216v-26c-8 -5.33301 -17.667 -9.83301 -29 -13.5s-23.666 -7.16699 -36.999 -10.5v-401c11.333 -3.33301 22.333 -6.83301 33 -10.5s21.667 -8.16699 33 -13.5
v-25z" />
    <glyph glyph-name="afii10094" unicode="&#x44c;" horiz-adv-x="508" 
d="M195 296c11.333 1.33301 24 3 38 5s34.333 3 61 3c54.667 0 97.667 -11.667 129 -35s47 -60 47 -110c0 -26.667 -5.16699 -50.167 -15.5 -70.5s-24.5 -37.333 -42.5 -51s-39.667 -24 -65 -31s-53 -10.5 -83 -10.5c-18 0 -38.167 0.666992 -60.5 2s-46.166 2 -71.499 2
h-93v25c10 5.33301 20.667 9.83301 32 13.5l34 10.5v401c-12.667 2.66699 -24.334 6 -35.001 10s-21 8.66699 -31 14v26h216v-26c-16 -9.33301 -36 -17.333 -60 -24v-154zM195 43l25.999 -1.99902c8.66699 -0.666992 17.667 -1 27 -1c38.667 0 68.834 9.66699 90.501 29
s32.5 49.666 32.5 90.999c0 18.667 -3 34.5 -9 47.5s-14 23.333 -24 31s-21.833 13.167 -35.5 16.5s-28.167 5 -43.5 5c-10.667 0 -21.5 -0.166992 -32.5 -0.5s-21.5 -1.5 -31.5 -3.5v-213z" />
    <glyph glyph-name="afii10095" unicode="&#x44d;" horiz-adv-x="491" 
d="M219 -12c-38 0 -71.4971 5.66797 -100.497 17.001s-53.167 25.666 -72.5 42.999l18 67h20c8.66699 -9.33301 18.334 -20.5 29.001 -33.5l31 -38.5c14 -5.33301 34.667 -8 62 -8c44 0 79.5 18 106.5 54s40.833 84.667 41.5 146l-198 -15c-7.33301 18 -7.33301 36 0 54h198
c-1.33301 36 -5.83301 66.333 -13.5 91s-18 44.667 -31 60s-28 26.333 -45 33s-35.833 10 -56.5 10c-27.333 0 -44.333 -2.33301 -51 -7l-44 -122h-25c-6 18.667 -11.333 39.667 -16 63s-8.33398 46.666 -11.001 69.999c18 10 39.333 19.167 64 27.5s58 12.5 100 12.5
c32 0 61.667 -4.33301 89 -13s51.166 -23 71.499 -43s36.166 -46 47.499 -78s17 -71.333 17 -118c0 -47.333 -6.5 -88.166 -19.5 -122.499s-30.333 -62.5 -52 -84.5s-46.334 -38.333 -74.001 -49s-56.167 -16 -85.5 -16z" />
    <glyph glyph-name="afii10096" unicode="&#x44e;" horiz-adv-x="786" 
d="M254 0l-214.999 -0.000976562v25c9.33301 5.33301 19.666 9.83301 30.999 13.5s23 7.16699 35 10.5v401c-11.333 3.33301 -22.333 6.83301 -33 10.5s-21.667 8.16699 -33 13.5v26h215v-26c-7.33301 -4.66699 -15.666 -9 -24.999 -13s-20.666 -7.66699 -33.999 -11v-175
h99c4 74.667 26 132.834 66 174.501s92.667 62.5 158 62.5c74.667 0 131.167 -22.333 169.5 -67s57.5 -110.667 57.5 -198c0 -80 -19.667 -143.167 -59 -189.5s-95.333 -69.5 -168 -69.5c-31.333 0 -60.333 4.83301 -87 14.5s-50 24.5 -70 44.5s-35.833 45.333 -47.5 76
s-18.167 66.667 -19.5 108h-99v-182c13.333 -2.66699 24.666 -6 33.999 -10s17.666 -8.66699 24.999 -14v-25zM388.001 249.999c0 -36 3.66504 -67.501 10.998 -94.501s17.333 -49.667 30 -68s27.334 -32.166 44.001 -41.499s34 -14 52 -14
c43.333 0 74.833 19.167 94.5 57.5s29.5 91.833 29.5 160.5c0 72.667 -11 127.167 -33 163.5s-56 54.5 -102 54.5c-39.333 0 -70.166 -19.333 -92.499 -58s-33.5 -92 -33.5 -160z" />
    <glyph glyph-name="afii10097" unicode="&#x44f;" horiz-adv-x="530" 
d="M64 353c0 22.667 3.66602 43.334 10.999 62.001s18.833 34.667 34.5 48s35.667 23.833 60 31.5s53.833 11.5 88.5 11.5c8 0 19.167 -0.333008 33.5 -1s29.5 -1.33398 45.5 -2.00098l46.5 -2c15 -0.666992 26.833 -1 35.5 -1h72v-26
c-5.33301 -4.66699 -12.833 -9 -22.5 -13s-24.167 -7.66699 -43.5 -11v-401c24.667 -7.33301 46.667 -15.333 66 -24v-25h-215v25c8.66699 5.33301 17.834 9.83301 27.501 13.5s20.167 7.16699 31.5 10.5v169l-73 -10c-14 -23.333 -29.667 -51.5 -47 -84.5
s-41 -66.5 -71 -100.5l-31 -23h-113v25l56 24c30 31.333 55.333 62.333 76 93s39.334 56.667 56.001 78c-15.333 2.66699 -30.333 7.16699 -45 13.5s-27.834 15 -39.501 26s-21.167 24.167 -28.5 39.5s-11 33.333 -11 54zM334.999 456
c-8.66699 1.33301 -19.832 2.66699 -33.499 4s-25.167 2 -34.5 2c-41.333 0.666992 -69.833 -8.83301 -85.5 -28.5s-23.5 -45.5 -23.5 -77.5c0 -32.667 12.167 -59.5 36.5 -80.5s62.166 -31.5 113.499 -31.5h27v212z" />
    <glyph glyph-name="afii10071" unicode="&#x451;" horiz-adv-x="503" 
d="M446 70c-5.33301 -11.333 -13.668 -22.002 -25.001 -32.002s-24.333 -18.667 -39 -26s-30.667 -13.166 -48 -17.499s-35 -6.5 -53 -6.5c-39.333 0 -74 6.16699 -104 18.5s-55 30 -75 53s-35.167 50.5 -45.5 82.5s-15.5 68 -15.5 108c0 85.333 19.667 150.333 59 195
s95 67 167 67c23.333 0 46.333 -3.16699 69 -9.5s42.834 -16.833 60.501 -31.5s32 -34.167 43 -58.5s16.5 -54.5 16.5 -90.5c0 -11.333 -0.5 -22.833 -1.5 -34.5s-2.83301 -24.167 -5.5 -37.5h-312c0 -28 3.5 -54.167 10.5 -78.5s17.5 -45.5 31.5 -63.5
s31.667 -32.167 53 -42.5s46.333 -15.5 75 -15.5c23.333 0 47 3.33301 71 10s42 15.334 54 26.001zM262.998 467.998c-38 0 -67 -12.832 -87 -38.499s-32 -70.834 -36 -135.501h220c0.666992 6 1.16699 11.833 1.5 17.5s0.5 11.167 0.5 16.5c0 42.667 -8 76.667 -24 102
s-41 38 -75 38zM95.998 662.999c0 16 5 28.833 15 38.5s23 14.5 39 14.5s29 -4.83301 39 -14.5s15 -22.5 15 -38.5c0 -15.333 -5 -27.666 -15 -36.999s-23 -14 -39 -14s-29 4.66699 -39 14s-15 21.666 -15 36.999zM317.998 662.999c0 16 5 28.833 15 38.5s23 14.5 39 14.5
s29 -4.83301 39 -14.5s15 -22.5 15 -38.5c0 -15.333 -5 -27.666 -15 -36.999s-23 -14 -39 -14s-29 4.66699 -39 14s-15 21.666 -15 36.999z" />
    <glyph glyph-name="afii10099" unicode="&#x452;" horiz-adv-x="574" 
d="M22 598l68 0.00292969v84l-76 8v26c19.333 8 41.833 15 67.5 21s50.167 11 73.5 15h25v-154h208v-52h-208v-184h1c14 31.333 34.167 58 60.5 80s58.166 33 95.499 33c26.667 0 50.5 -3.16699 71.5 -9.5s38.5 -17.5 52.5 -33.5s24.667 -37.5 32 -64.5
s11 -61.167 11 -102.5v-264c0 -41.333 -4 -75.5 -12 -102.5s-19.667 -48.333 -35 -64s-34.166 -27 -56.499 -34s-47.833 -11.167 -76.5 -12.5l-5 28c18 5.33301 33 11.666 45 18.999s21.833 17.666 29.5 30.999s13 30.666 16 51.999s4.5 49 4.5 83v245
c0 52 -7.33301 92.833 -22 122.5s-41.334 44.5 -80.001 44.5c-17.333 0 -33 -3 -47 -9s-26.667 -14.167 -38 -24.5s-21 -22 -29 -35s-14 -26.5 -18 -40.5v-255c10.667 -2.66699 20.834 -5.66699 30.501 -9s19.167 -8.33301 28.5 -15v-25h-215v25
c20.667 10.667 42.667 18.667 66 24v497h-68v52z" />
    <glyph glyph-name="afii10100" unicode="&#x453;" horiz-adv-x="431" 
d="M412 500c-0.666992 -26 -1.83301 -53 -3.5 -81s-4.5 -55.667 -8.5 -83h-26l-44 120h-135v-407c38 -7.33301 68 -15.333 90 -24v-25h-246v25c11.333 6.66699 22.333 11.667 33 15s21.667 6.33301 33 9v402c-24.667 4 -46.667 11.667 -66 23v26h373zM298.001 767
c5.33301 0.666992 12.333 0.5 21 -0.5s17.667 -2.5 27 -4.5s18 -4.5 26 -7.5s14 -6.16699 18 -9.5v-19l-187 -151l-22 18z" />
    <glyph glyph-name="afii10101" unicode="&#x454;" horiz-adv-x="477" 
d="M438 70c-12 -23.333 -31.4951 -42.8262 -58.4951 -58.4932s-58.5 -23.5 -94.5 -23.5c-39.333 0 -74.166 6.16699 -104.499 18.5s-55.833 30 -76.5 53s-36.334 50.667 -47.001 83s-16 68.166 -16 107.499c0 42 5.83301 79.333 17.5 112s28.167 60 49.5 82
s46.666 38.833 75.999 50.5s61.666 17.5 96.999 17.5c34 0 64 -2.83301 90 -8.5s48 -13.167 66 -22.5c-1.33301 -11.333 -3 -23.333 -5 -36s-4.33301 -25.334 -7 -38.001s-5.83398 -24.834 -9.50098 -36.501s-7.5 -21.834 -11.5 -30.501h-25l-42 119
c-4.66699 3.33301 -10.167 5.66602 -16.5 6.99902s-16.5 2 -30.5 2c-22 0 -42.167 -3.66699 -60.5 -11s-34.166 -19 -47.499 -35s-24 -36.833 -32 -62.5s-12.333 -56.834 -13 -93.501l195 15c7.33301 -18 7.33301 -36 0 -54h-193c2 -23.333 7.66699 -45.5 17 -66.5
s21.666 -39.833 36.999 -56.5s33.666 -29.834 54.999 -39.501s45.333 -14.5 72 -14.5c23.333 0 43.666 3.33301 60.999 10s32 14.667 44 24z" />
    <glyph glyph-name="afii10102" unicode="&#x455;" horiz-adv-x="433" 
d="M295 114c0 18.667 -5.83203 34.5039 -17.499 47.5039s-26.5 25.167 -44.5 36.5s-37.167 22.333 -57.5 33s-39.5 23.167 -57.5 37.5s-32.833 30.833 -44.5 49.5s-17.5 41.667 -17.5 69c0 18 4.16699 34.667 12.5 50s19.5 28.5 33.5 39.5s30.333 19.667 49 26
s38.667 9.5 60 9.5c36 0 65.5 -2 88.5 -6s45.167 -9.66699 66.5 -17c-2.66699 -21.333 -5.83398 -42.833 -9.50098 -64.5s-8.83398 -43.834 -15.501 -66.501h-25l-38 102c-8 3.33301 -17 5.5 -27 6.5s-20.333 1.5 -31 1.5c-12 0 -22.5 -2.16699 -31.5 -6.5
s-16.667 -9.83301 -23 -16.5s-11.166 -14.334 -14.499 -23.001s-5 -17.334 -5 -26.001c0 -18 5.83301 -33.5 17.5 -46.5s26.5 -25 44.5 -36s37.167 -21.833 57.5 -32.5s39.5 -22.667 57.5 -36s32.833 -28.833 44.5 -46.5s17.5 -38.834 17.5 -63.501
c0 -22.667 -4.83301 -43 -14.5 -61s-23 -33.333 -40 -46s-36.667 -22.5 -59 -29.5s-46.166 -10.5 -71.499 -10.5c-28.667 0 -55 2.5 -79 7.5s-49 12.167 -75 21.5c1.33301 24 4.33301 47.167 9 69.5s10.667 43.833 18 64.5h25l44 -109
c7.33301 -5.33301 16.166 -8.33301 26.499 -9s19.833 -1 28.5 -1c29.333 0 53 8 71 24s27 35.333 27 58z" />
    <glyph glyph-name="afii10103" unicode="&#x456;" horiz-adv-x="301" 
d="M263 0h-222.002v25c10 5.33301 20.333 9.83301 31 13.5s22.334 7.16699 35.001 10.5v393l-66 8v26c19.333 8 40.333 15 63 21s45.334 11 68.001 15h25v-463c13.333 -3.33301 25.333 -6.83301 36 -10.5s20.667 -8.16699 30 -13.5v-25zM87.998 670
c0 18 5.83301 32.333 17.5 43s27.167 16 46.5 16s34.666 -5.33301 45.999 -16s17 -25 17 -43s-5.66699 -32.167 -17 -42.5s-26.666 -15.5 -45.999 -15.5s-34.833 5.16699 -46.5 15.5s-17.5 24.5 -17.5 42.5z" />
    <glyph glyph-name="afii10104" unicode="&#x457;" horiz-adv-x="348" 
d="M39 668c0 17.333 5 31.5 15 42.5s23 16.5 39 16.5s28.833 -5.5 38.5 -16.5s14.5 -25.167 14.5 -42.5c0 -16.667 -4.83301 -30.167 -14.5 -40.5s-22.5 -15.5 -38.5 -15.5s-29 5.16699 -39 15.5s-15 23.833 -15 40.5zM201 668c0 17.333 4.83301 31.5 14.5 42.5
s22.834 16.5 39.501 16.5c16 0 28.833 -5.5 38.5 -16.5s14.5 -25.167 14.5 -42.5c0 -16.667 -4.83301 -30.167 -14.5 -40.5s-22.5 -15.5 -38.5 -15.5c-16.667 0 -29.834 5.16699 -39.501 15.5s-14.5 23.833 -14.5 40.5zM286 0h-222.002v25
c10 5.33301 20.333 9.83301 31 13.5s22.334 7.16699 35.001 10.5v393l-66 8v26c19.333 8 40.333 15 63 21s45.334 11 68.001 15h25v-463c13.333 -3.33301 25.333 -6.83301 36 -10.5s20.667 -8.16699 30 -13.5v-25z" />
    <glyph glyph-name="afii10105" unicode="&#x458;" horiz-adv-x="288" 
d="M106 442l-66 7.99707v26c19.333 9.33301 40.5 16.833 63.5 22.5s45.5 10.167 67.5 13.5h25v-469c0 -47.333 -6 -86.666 -18 -117.999s-26 -56.666 -42 -75.999s-32.333 -33.666 -49 -42.999s-30 -15.333 -40 -18l-12 19c8 4 16.167 11 24.5 21s16 23.833 23 41.5
s12.667 39.167 17 64.5s6.5 55.333 6.5 90v418zM86 669.997c0 18 5.83301 32.333 17.5 43s27.167 16 46.5 16s34.666 -5.33301 45.999 -16s17 -25 17 -43s-5.66699 -32.167 -17 -42.5s-26.666 -15.5 -45.999 -15.5s-34.833 5.16699 -46.5 15.5s-17.5 24.5 -17.5 42.5z" />
    <glyph glyph-name="afii10106" unicode="&#x459;" horiz-adv-x="741" 
d="M504 474c-7.33301 -4.66699 -16.9971 -8.99707 -28.9971 -12.9971s-24.333 -7.66699 -37 -11v-154c11.333 1.33301 24 3 38 5s34.333 3 61 3c50.667 0 91 -11.667 121 -35s45 -60 45 -110c0 -26.667 -4.83301 -50.167 -14.5 -70.5s-23 -37.333 -40 -51
s-37.667 -24 -62 -31s-50.833 -10.5 -79.5 -10.5c-18 0 -38.167 0.666992 -60.5 2s-46.166 2 -71.499 2h-86v25c16 11.333 35.667 19.333 59 24v407h-132c-0.666992 -35.333 -2.66699 -72.833 -6 -112.5s-8.33301 -78.667 -15 -117s-15.334 -74.333 -26.001 -108
s-23.667 -61.834 -39 -84.501c-12.667 -19.333 -26.334 -32.833 -41.001 -40.5s-28.334 -10.167 -41.001 -7.5c-10 11.333 -19.5 26.166 -28.5 44.499s-14.167 35.166 -15.5 50.499l14 25l85 -20c9.33301 16 17.666 37.333 24.999 64s13.5 56 18.5 88
s8.83301 65.5 11.5 100.5s4 68.833 4 101.5c-13.333 4 -25.5 9 -36.5 15s-21.167 12.333 -30.5 19v26h409v-26zM438.003 43.0029l27 -2.00098c8.66699 -0.666992 17.334 -1 26.001 -1c39.333 0 68.166 9.83301 86.499 29.5s27.5 49.834 27.5 90.501
c0 18.667 -3 34.5 -9 47.5s-13.833 23.333 -23.5 31s-20.834 13.167 -33.501 16.5s-26 5 -40 5c-9.33301 0 -19.166 -0.166992 -29.499 -0.5s-20.833 -1.5 -31.5 -3.5v-213z" />
    <glyph glyph-name="afii10107" unicode="&#x45a;" horiz-adv-x="810" 
d="M357 25c16.667 12 36.668 20 60.001 24v182h-222v-182c13.333 -2.66699 24.666 -6 33.999 -10s17.666 -8.66699 24.999 -14v-25h-215v25c9.33301 5.33301 19.666 9.83301 30.999 13.5s23 7.16699 35 10.5v401c-12 3.33301 -23.667 6.83301 -35 10.5
s-21.666 8.16699 -30.999 13.5v26h215v-26c-15.333 -9.33301 -35 -17.333 -59 -24v-175h222v175c-23.333 4 -43.333 12 -60 24v26h216v-26c-7.33301 -4.66699 -17 -9 -29 -13s-24.333 -7.66699 -37 -11v-154c11.333 1.33301 24 3 38 5s34.333 3 61 3
c50 0 90.167 -11.667 120.5 -35s45.5 -60 45.5 -110c0 -26.667 -4.83301 -50.167 -14.5 -70.5s-23.167 -37.333 -40.5 -51s-38 -24 -62 -31s-50.333 -10.5 -79 -10.5c-18 0 -38.167 0.666992 -60.5 2s-46.166 2 -71.499 2h-87v25zM507.001 43l26.002 -2
c8.66699 -0.666992 17.667 -1 27 -1c75.333 0 113 40 113 120c0 18.667 -2.83301 34.5 -8.5 47.5s-13.334 23.5 -23.001 31.5s-20.834 13.833 -33.501 17.5s-26 5.5 -40 5.5c-9.33301 0 -19.333 -0.5 -30 -1.5s-21 -2.5 -31 -4.5v-213z" />
    <glyph glyph-name="afii10108" unicode="&#x45b;" horiz-adv-x="584" 
d="M22 598l68.002 0.000976562v84l-76 8v26c19.333 8 41.833 15 67.5 21s50.167 11 73.5 15h25v-154h208v-52h-208v-184h1c14 31.333 34.167 58 60.5 80s58.166 33 95.499 33c26.667 0 50.5 -3.16699 71.5 -9.5s38.5 -17.5 52.5 -33.5s24.667 -37.5 32 -64.5
s11 -61.167 11 -102.5v-207l63 -9v-21c-19.333 -8.66699 -40.333 -16.334 -63 -23.001s-44.334 -11.667 -65.001 -15h-25v256c0 52 -7.33301 92.833 -22 122.5s-41.334 44.5 -80.001 44.5c-17.333 0 -33 -3.16699 -47 -9.5s-26.667 -14.5 -38 -24.5s-21 -21.5 -29 -34.5
s-14 -26.5 -18 -40.5v-255c10.667 -2.66699 20.834 -5.66699 30.501 -9s19.167 -8.33301 28.5 -15v-25h-215v25c20.667 10.667 42.667 18.667 66 24v497h-68v52z" />
    <glyph glyph-name="afii10109" unicode="&#x45c;" horiz-adv-x="541" 
d="M325 500l193.003 0.000976562v-26c-6.66699 -5.33301 -15.5 -10 -26.5 -14s-24.5 -8.66699 -40.5 -14l-72 -83c-25.333 -28 -52 -56 -80 -84l46.5 -53l49.5 -60l50 -61c16.667 -20 33 -38.667 49 -56l47 -24v-25h-117l-32 23c-30 36 -57.333 72 -82 108l-75 106h-40v-188
c13.333 -3.33301 25.5 -6.83301 36.5 -10.5s20.5 -8.16699 28.5 -13.5v-25h-221v25c18 10.667 40 18.667 66 24v401c-23.333 4.66699 -45.333 12.667 -66 24v26h205v-26c-6.66699 -4.66699 -13.834 -9 -21.501 -13s-16.834 -7.66699 -27.501 -11v-187l46 10l76 86
c24 26.667 46.333 55.667 67 87l-31.5 13.5c-9.66699 4.33301 -18.834 9.16602 -27.501 14.499v26zM343.003 767.001c5.33301 0.666992 12.333 0.5 21 -0.5s17.667 -2.5 27 -4.5s18 -4.5 26 -7.5s14 -6.16699 18 -9.5v-19l-187 -151l-22 18z" />
    <glyph glyph-name="afii10110" unicode="&#x45e;" horiz-adv-x="505" 
d="M42 450c-10 2.66699 -19.168 6 -27.501 10s-16.833 8.66699 -25.5 14v26h209v-25c-14 -9.33301 -33 -17.666 -57 -24.999l128 -296l19 -62h2l15 63l95 295c-20 4 -38.333 12 -55 24v26h171v-26c-14 -9.33301 -33 -17.333 -57 -24l-156 -450
c-16 -42.667 -31.167 -77.167 -45.5 -103.5s-28.666 -47.166 -42.999 -62.499s-29 -26.5 -44 -33.5s-31.167 -12.167 -48.5 -15.5c-7.33301 12.667 -13.833 26.667 -19.5 42s-10.5 30 -14.5 44l13 24h104c4 5.33301 7.5 10.5 10.5 15.5s6.16699 11.167 9.5 18.5
s7 16.666 11 27.999s8.66699 25.666 14 42.999zM271.999 560c-33.333 0 -60.6709 3.5 -82.0039 10.5s-38.333 16.167 -51 27.5s-21.5 24.5 -26.5 39.5s-7.5 30.167 -7.5 45.5c10.667 8.66699 22.334 15 35.001 19s26 6.66699 40 8l25 -13v-89
c9.33301 -4 20.333 -6.83301 33 -8.5s24.334 -2.5 35.001 -2.5c6.66699 0 17.334 0.666992 32.001 2s26.667 3.33301 36 6v92l25 13c14 -1.33301 27.167 -4.33301 39.5 -9s22.5 -10.667 30.5 -18c0 -15.333 -2.66699 -30.5 -8 -45.5s-14.166 -28.167 -26.499 -39.5
s-29 -20.5 -50 -27.5s-47.5 -10.5 -79.5 -10.5z" />
    <glyph glyph-name="afii10193" unicode="&#x45f;" horiz-adv-x="602" 
d="M254 474c-7.33301 -4 -15.668 -7.99902 -25.001 -11.999s-20.666 -8 -33.999 -12v-406h212v406c-14.667 3.33301 -26.667 7 -36 11s-17.333 8.33301 -24 13v26h216v-26c-21.333 -12 -43.333 -20 -66 -24v-401c14 -1.33301 26.333 -4.33301 37 -9
s20.334 -9.66699 29.001 -15v-25h-218c-4 -31.333 -8.33301 -61.333 -13 -90s-10.667 -59 -18 -91h-26c-6.66699 32.667 -12.167 63.167 -16.5 91.5s-9.16602 58.166 -14.499 89.499h-218v25c7.33301 4.66699 16.666 9 27.999 13s24 7.66699 38 11v401
c-10 1.33301 -20.333 3.83301 -31 7.5s-22.334 9.16699 -35.001 16.5v26h215v-26z" />
    <glyph glyph-name="afii10146" unicode="&#x462;" horiz-adv-x="713" 
d="M323 565l0.000976562 -159.003c12 2 26.833 3.66699 44.5 5s33.167 2 46.5 2c32.667 0 64.667 -2.66699 96 -8s59.166 -15.5 83.499 -30.5s43.833 -35.5 58.5 -61.5s22 -59.333 22 -100c0 -39.333 -7.66699 -72.666 -23 -99.999s-35.833 -49.666 -61.5 -66.999
s-55 -29.833 -88 -37.5s-67.167 -11.5 -102.5 -11.5c-3.33301 0 -9.83301 0.166992 -19.5 0.5s-20.667 0.666016 -33 0.999023l-38.5 1c-13.333 0.333008 -25 0.5 -35 0.5h-128v29c26 12 53.333 20 82 24v512h-128l-52 -142h-26c-2 13.333 -3.5 28.5 -4.5 45.5l-3 52
c-1 17.667 -1.83301 34.834 -2.5 51.501s-1 31.667 -1 45h217v51c-13.333 2.66699 -27 6 -41 10s-27.667 9 -41 15v28h267v-28c-12.667 -5.33301 -26.5 -10.166 -41.5 -14.499s-30.833 -7.83301 -47.5 -10.5v-51h256c-0.666992 -26 -2 -54.333 -4 -85
s-4.66699 -59.667 -8 -87h-25l-52 120h-167zM392.001 360.997c-16 0 -29.167 -0.168945 -39.5 -0.501953s-20.166 -1.83301 -29.499 -4.5v-303c3.33301 -1.33301 8.16602 -2.16602 14.499 -2.49902s13.166 -0.666016 20.499 -0.999023s14.333 -0.5 21 -0.5h16
c23.333 0 45.333 3 66 9s38.834 15.5 54.501 28.5s28.167 29.833 37.5 50.5s14 46 14 76c0 54 -15.667 92.167 -47 114.5s-74 33.5 -128 33.5z" />
    <glyph glyph-name="afii10194" unicode="&#x463;" horiz-adv-x="584" 
d="M271 456l-0.000976562 -160.001c11.333 1.33301 24 3 38 5s34.333 3 61 3c54.667 0 97.667 -11.667 129 -35s47 -60 47 -110c0 -26.667 -5.16699 -50.167 -15.5 -70.5s-24.5 -37.333 -42.5 -51s-39.667 -24 -65 -31s-53 -10.5 -83 -10.5c-18 0 -38.167 0.666992 -60.5 2
s-46.166 2 -71.499 2h-93v25c10 5.33301 20.667 9.83301 32 13.5l34 10.5v407h-84l-44 -120h-26c-3.33301 28.667 -6 56.834 -8 84.501s-3.33301 54.167 -4 79.5h166v182l-76 8v26c17.333 8 39 15 65 21s51.333 11 76 15h25v-252h185c1.33301 -24 0.833008 -46.5 -1.5 -67.5
l-8.5 -73.5h-26l-56 97h-93zM270.999 42.999l25.999 -2c8.66699 -0.666992 17.667 -1 27 -1c38.667 0 68.834 9.66699 90.501 29s32.5 49.666 32.5 90.999c0 18.667 -3 34.334 -9 47.001s-14 23 -24 31s-21.833 13.667 -35.5 17s-28.167 5 -43.5 5
c-10.667 0 -21.5 -0.333008 -32.5 -1s-21.5 -2 -31.5 -4v-212z" />
    <glyph glyph-name="afii10147" unicode="&#x472;" horiz-adv-x="740" 
d="M53 350c0 52 7.16699 100.167 21.5 144.5s35 82.666 62 114.999s60.167 57.5 99.5 75.5s84 27 134 27s94.667 -9 134 -27s72.5 -43.167 99.5 -75.5s47.667 -70.666 62 -114.999s21.5 -92.5 21.5 -144.5s-7.16699 -100.167 -21.5 -144.5s-35 -82.666 -62 -114.999
s-60.167 -57.5 -99.5 -75.5s-84 -27 -134 -27s-94.667 9 -134 27s-72.5 43.167 -99.5 75.5s-47.667 70.666 -62 114.999s-21.5 92.5 -21.5 144.5zM379 40c32.667 0 61.498 7.66797 86.498 23.001s45.833 36.166 62.5 62.499s29.334 57.333 38.001 93
s13.667 73.834 15 114.501c-18 -19.333 -37.333 -33.166 -58 -41.499s-38.667 -12.5 -54 -12.5c-18 0 -35.5 3.66699 -52.5 11s-33.833 15.166 -50.5 23.499s-33.5 16.166 -50.5 23.499s-34.167 11 -51.5 11c-14 0 -30.667 -2.66699 -50 -8s-37.333 -17 -54 -35
c2.66699 -37.333 9.33398 -72.166 20.001 -104.499s25.167 -60.333 43.5 -84s40.333 -42.334 66 -56.001s55.5 -20.5 89.5 -20.5zM361.998 660.001c-37.333 0 -68.8301 -8.33398 -94.4971 -25.001s-46.5 -39.334 -62.5 -68.001s-27.667 -62.167 -35 -100.5
s-11 -79.166 -11 -122.499c15.333 18.667 31.166 33.5 47.499 44.5s32.166 19.167 47.499 24.5c14 4.66699 28 7 42 7c18 0 35.167 -3.66699 51.5 -11s32.5 -15.166 48.5 -23.499s32 -16 48 -23s32.667 -10.5 50 -10.5c11.333 0 25.166 0.833008 41.499 2.5
s31.166 7.16699 44.499 16.5c-1.33301 40 -6.66602 77.667 -15.999 113s-23 66 -41 92s-40.333 46.5 -67 61.5s-58 22.5 -94 22.5z" />
    <glyph glyph-name="afii10195" unicode="&#x473;" horiz-adv-x="553" 
d="M41 250c0 42 5.49902 79.1689 16.499 111.502s26.833 59.666 47.5 81.999s45.5 39.333 74.5 51s61.167 17.5 96.5 17.5c41.333 0 77 -6.33301 107 -19s54.5 -30.5 73.5 -53.5s33 -50.5 42 -82.5s13.5 -67.667 13.5 -107c0 -84 -21.333 -148.667 -64 -194
s-100 -68 -172 -68c-40 0 -74.667 6.16699 -104 18.5s-53.666 30 -72.999 53s-33.833 50.667 -43.5 83s-14.5 68.166 -14.5 107.499zM356.999 266.002c7.33301 0 16.334 1.66992 27.001 5.00293s20.667 8.33301 30 15c-2 26 -6.33301 50.167 -13 72.5s-16 41.5 -28 57.5
s-26.667 28.667 -44 38s-37.666 14 -60.999 14c-38.667 0 -70 -16.667 -94 -50s-36.667 -85 -38 -155c20 15.333 38.667 25.666 56 30.999s32.666 8 45.999 8c12 0 23 -1.83301 33 -5.5s19.667 -7.83398 29 -12.501s18.666 -8.83398 27.999 -12.501s19 -5.5 29 -5.5z
M195 244.005c-7.33301 0 -16.501 -2.33398 -27.501 -7.00098s-21.167 -10.667 -30.5 -18c1.33301 -26.667 5.33301 -51.5 12 -74.5s16.334 -42.833 29.001 -59.5s28.5 -29.667 47.5 -39s41.5 -14 67.5 -14c35.333 0 64.5 17.333 87.5 52s34.833 88.334 35.5 161.001
c-18 -14.667 -35.167 -25 -51.5 -31s-31.833 -9 -46.5 -9c-12 0 -23.167 2 -33.5 6s-20.5 8.5 -30.5 13.5s-19.833 9.5 -29.5 13.5s-19.5 6 -29.5 6z" />
    <glyph glyph-name="afii10148" unicode="&#x474;" horiz-adv-x="700" 
d="M661 712c6.66699 -2.66699 13.499 -8.66895 20.499 -18.002s13.167 -20 18.5 -32s9.66602 -24.333 12.999 -37s5 -23.334 5 -32.001l-16 -24l-96 27c-21.333 -30.667 -43.833 -69.167 -67.5 -115.5s-46.5 -96.666 -68.5 -150.999s-42 -111 -60 -170
s-32 -116.167 -42 -171.5h-39l-253 658c-13.333 3.33301 -26.333 7.16602 -39 11.499s-25 8.83301 -37 13.5v29h265v-29c-11.333 -4.66699 -24 -9.16699 -38 -13.5s-28.667 -8.16602 -44 -11.499l155 -430l22 -80h2l13 80c12.667 47.333 27.667 94.5 45 141.5
s35.833 91 55.5 132s39.334 77.833 59.001 110.5s37.834 58.334 54.501 77.001c11.333 12.667 23 21.334 35 26.001s24.333 7.66699 37 9z" />
    <glyph glyph-name="afii10196" unicode="&#x475;" horiz-adv-x="511" 
d="M283 0l-45.0029 -12.0029l-195 462c-19.333 6.66699 -37 14.667 -53 24v26h209v-25c-8.66699 -4.66699 -17.5 -9.16699 -26.5 -13.5s-19.167 -8.16602 -30.5 -11.499l116 -301l14 -53h2l10 60c12.667 52.667 28 106 46 160s41 102.333 69 145
c12.667 19.333 27.167 32.833 43.5 40.5s30.833 10.167 43.5 7.5c6 -4.66699 11.5 -10.667 16.5 -18s9.5 -15.333 13.5 -24s7.33301 -17.667 10 -27s4.33398 -18 5.00098 -26l-15 -26l-84 21c-9.33301 -15.333 -18.666 -33.166 -27.999 -53.499
s-18.166 -41.166 -26.499 -62.499s-16 -42.5 -23 -63.5l-18.5 -56.5z" />
    <glyph glyph-name="uni048A" unicode="&#x48a;" horiz-adv-x="742" 
d="M282 0l-253.003 0.00195312v29c26.667 12 54 20 82 24v593c-13.333 3.33301 -27 7 -41 11s-27.667 8.66699 -41 14v29h253v-29c-10.667 -5.33301 -22 -10 -34 -14s-25.667 -7.66699 -41 -11v-434l-11 -75l48 79l293 406v24c-15.333 3.33301 -29.833 7.16602 -43.5 11.499
s-26.167 8.83301 -37.5 13.5v29h254v-29c-12 -5.33301 -25 -10 -39 -14s-28.333 -7.66699 -43 -11v-594h110l8 -7c-2.66699 -12.667 -7.66699 -27.5 -15 -44.5s-15.666 -34.5 -24.999 -52.5s-19.333 -35.833 -30 -53.5s-20.667 -32.834 -30 -45.501h-27l29 151h-192v29
c10.667 4.66699 22.334 9.16699 35.001 13.5s26.334 7.83301 41.001 10.5v433l10 75l-44 -75l-297 -411v-22c15.333 -2.66699 29.833 -6 43.5 -10s26.167 -8.66699 37.5 -14v-29zM369.997 732.002c-61.333 0 -106.166 12.166 -134.499 36.499s-42.5 54.5 -42.5 90.5
c7.33301 7.33301 18.166 12.666 32.499 15.999s28.5 5.33301 42.5 6l25 -13v-85c9.33301 -4.66699 20.833 -8.16699 34.5 -10.5s28.167 -3.5 43.5 -3.5c11.333 0 24.833 1 40.5 3s28.167 4.66699 37.5 8v88l25 13c10.667 0.666992 23 -1.16602 37 -5.49902
s25.333 -9.83301 34 -16.5c0 -18 -3.33301 -34.667 -10 -50s-17 -28.666 -31 -39.999s-32 -20.333 -54 -27s-48.667 -10 -80 -10z" />
    <glyph glyph-name="uni048B" unicode="&#x48b;" horiz-adv-x="620" 
d="M39 500h211.999v-26c-7.33301 -4 -15.833 -8 -25.5 -12s-21.167 -8 -34.5 -12v-274l-11 -93h5l39 75l214 342h135v-26c-21.333 -12 -43.333 -20 -66 -24v-406h95l5 -8c-3.33301 -16 -8.66602 -33.333 -15.999 -52s-15.5 -36.667 -24.5 -54s-18 -33 -27 -47
s-16.5 -24.333 -22.5 -31h-27l27 148h-156v25c18.667 10.667 38.667 18.667 60 24v286l10 79h-5l-38 -75l-212 -339h-137v25c11.333 5.33301 22.333 9.83301 33 13.5s21.667 7.16699 33 10.5v401c-26 4 -48 12 -66 24v26zM316.999 560
c-33.333 0 -60.6699 3.50195 -82.0029 10.502s-38.333 16.167 -51 27.5s-21.5 24.5 -26.5 39.5s-7.5 30.167 -7.5 45.5c10.667 8 22.5 14.167 35.5 18.5s26.167 7.16602 39.5 8.49902l25 -13v-89c9.33301 -4 20.333 -6.83301 33 -8.5s24.334 -2.5 35.001 -2.5
c6.66699 0 17.334 0.666992 32.001 2s26.667 3.33301 36 6v92l25 13c13.333 -2 26.333 -5.33301 39 -10s23 -10.334 31 -17.001c0 -15.333 -2.66699 -30.5 -8 -45.5s-14.166 -28.167 -26.499 -39.5s-29 -20.5 -50 -27.5s-47.5 -10.5 -79.5 -10.5z" />
    <glyph glyph-name="uni048C" unicode="&#x48c;" horiz-adv-x="626" 
d="M10 568l130.001 0.000976562v78c-13.333 2.66699 -27 6.16699 -41 10.5s-27.667 9.16602 -41 14.499v29h267v-29c-12.667 -5.33301 -26.5 -10.166 -41.5 -14.499s-30.833 -7.83301 -47.5 -10.5v-78h193v-52h-193v-99c12 1.33301 26.833 2.83301 44.5 4.5
s33.167 2.5 46.5 2.5c32.667 0 64.667 -3 96 -9s59.166 -16.667 83.499 -32s43.833 -36.333 58.5 -63s22 -60.667 22 -102c0 -39.333 -7.66699 -72.833 -23 -100.5s-35.833 -50.5 -61.5 -68.5s-55 -31.167 -88 -39.5s-67.167 -12.5 -102.5 -12.5
c-3.33301 0 -9.83301 0.166992 -19.5 0.5s-20.667 0.666016 -33 0.999023l-38.5 1c-13.333 0.333008 -25 0.5 -35 0.5h-128v29c26 12 53.333 20 82 24v463h-130v52zM305.001 372.001c-16 0 -29.167 -0.169922 -39.5 -0.50293s-20.166 -1.83301 -29.499 -4.5v-314
c3.33301 -1.33301 8.16602 -2.16602 14.499 -2.49902s13.166 -0.666016 20.499 -0.999023s14.333 -0.5 21 -0.5h16c23.333 0 45.333 3.33301 66 10s38.834 16.834 54.501 30.501s28.167 31.167 37.5 52.5s14 47 14 77c0 54 -15.667 93 -47 117s-74 36 -128 36z" />
    <glyph glyph-name="uni048D" unicode="&#x48d;" horiz-adv-x="498" 
d="M2 500h102.999v182l-76 8v26c18.667 8.66699 41.167 15.667 67.5 21l73.5 15h25v-252h144v-52h-144v-152c11.333 1.33301 24 3 38 5s34.333 3 61 3c50 0 90.167 -11.667 120.5 -35s45.5 -60 45.5 -110c0 -26.667 -4.83301 -50.167 -14.5 -70.5s-23.167 -37.333 -40.5 -51
s-38 -24 -62 -31s-50.333 -10.5 -79 -10.5c-18 0 -38.167 0.666992 -60.5 2s-46.166 2 -71.499 2h-93v25c11.333 6.66699 22.333 11.667 33 15s21.667 6.33301 33 9v399h-103v52zM194.999 43l26.002 -2c8.66699 -0.666992 17.667 -1 27 -1c75.333 0 113 40 113 120
c0 18.667 -2.83301 34.5 -8.5 47.5s-13.334 23.333 -23.001 31s-20.834 13.167 -33.501 16.5s-26 5 -40 5c-9.33301 0 -19.333 -0.166992 -30 -0.5s-21 -1.5 -31 -3.5v-213z" />
    <glyph glyph-name="uni048E" unicode="&#x48e;" horiz-adv-x="596" 
d="M207 53c18 -2 35 -5.16699 51 -9.5s31 -9.16602 45 -14.499v-29h-274v29c13.333 6.66699 27 11.667 41 15s27.667 6.33301 41 9v593c-15.333 2.66699 -29.666 6.16699 -42.999 10.5s-26.333 9.16602 -39 14.499v29h88c28 0 57.5 1.33301 88.5 4s61.167 4 90.5 4
c32.667 0 64.667 -3.5 96 -10.5s59.166 -18.833 83.499 -35.5s44 -38.834 59 -66.501s22.5 -62.167 22.5 -103.5c0 -51.333 -12.667 -92.833 -38 -124.5s-57.333 -55.5 -96 -71.5l51 -80l-47 -29l-58 93c-26.667 -6.66699 -55.667 -10 -87 -10h-15.5
c-7 0 -14.333 0.166992 -22 0.5s-15 0.833008 -22 1.5s-12.167 1.33398 -15.5 2.00098v-221zM275 656c-16 0 -28.999 -0.333984 -38.999 -1.00098s-19.667 -2 -29 -4v-324c3.33301 -1.33301 8.16602 -2.16602 14.499 -2.49902s13 -0.833008 20 -1.5s13.833 -1 20.5 -1h16
c22 0 42.667 3 62 9l-71 112l45 27l72 -118c19.333 13.333 34.833 31.5 46.5 54.5s17.5 51.5 17.5 85.5c0 54.667 -15.5 95.667 -46.5 123s-73.833 41 -128.5 41z" />
    <glyph glyph-name="uni048F" unicode="&#x48f;" horiz-adv-x="566" 
d="M253 -200l-222.002 0.00195312v25c22.667 10.667 44.667 18.667 66 24v593l-66 8v26c21.333 9.33301 45 17.666 71 24.999s49.667 11 71 11h14v-112c14 33.333 32.667 60.166 56 80.499s54.333 30.833 93 31.5c7.33301 0 14.5 -0.333008 21.5 -1s13.833 -1.66699 20.5 -3
c46.667 -8 82.834 -31.667 108.501 -71s38.5 -98 38.5 -176c0 -60.667 -11 -112 -33 -154s-52.333 -73 -91 -93l63 -91l-44 -27l-70 100c-10 -2.66699 -20 -4.66699 -30 -6s-20.667 -2 -32 -2c-23.333 0 -42 1.5 -56 4.5s-29 8.16699 -45 15.5v-159
c10.667 -1.33301 21.334 -3.83301 32.001 -7.5s22 -9.16699 34 -16.5v-25zM305.998 450.002c-33.333 0 -59.665 -10.5 -78.998 -31.5s-32.666 -49.833 -39.999 -86.5v-278c12 -7.33301 25.5 -12.833 40.5 -16.5s34.5 -5.5 58.5 -5.5c6.66699 0 13.167 0.333008 19.5 1
s12.166 2 17.499 4l-62 90l41 29l63 -92c20 20 35.667 47 47 81s17 72.667 17 116c0 27.333 -2.16699 52.5 -6.5 75.5s-11.333 43 -21 60s-22.334 30.167 -38.001 39.5s-34.834 14 -57.501 14z" />
    <glyph glyph-name="afii10050" unicode="&#x490;" horiz-adv-x="506" 
d="M207 53c32.667 -5.33301 64.667 -13.332 96 -23.999v-29h-274v29c26.667 10.667 54 18.667 82 24v593c-13.333 2.66699 -27 6.16699 -41 10.5s-27.667 9.16602 -41 14.499v29h380l53 136h26c2 -14 3.5 -29.167 4.5 -45.5s1.66699 -33 2 -50l1 -49.5
c0.333008 -16 0.5 -30.333 0.5 -43h-289v-595z" />
    <glyph glyph-name="afii10098" unicode="&#x491;" horiz-adv-x="410" 
d="M329 500c0.666992 0.666992 0.999023 2 0.999023 4l44 117h26c3.33301 -28 5.83301 -56 7.5 -84s2.83398 -55 3.50098 -81h-216v-407c38 -7.33301 68 -15.333 90 -24v-25h-246v25c11.333 6.66699 22.333 11.667 33 15s21.667 6.33301 33 9v402
c-24.667 4 -46.667 11.667 -66 23v26h290z" />
    <glyph glyph-name="uni0492" unicode="&#x492;" horiz-adv-x="543" 
d="M39 382l89 0.000976562v264c-13.333 2.66699 -27 6.16699 -41 10.5s-27.667 9.16602 -41 14.499v29h468c0 -13.333 -0.333008 -28.666 -1 -45.999l-2 -54c-0.666992 -18.667 -1.66699 -36.834 -3 -54.501s-3 -33.5 -5 -47.5h-26l-52 150h-201v-266h150v-52h-150v-277
c32.667 -5.33301 64.667 -13.333 96 -24v-29h-274v29c26.667 10.667 54 18.667 82 24v277h-89v52z" />
    <glyph glyph-name="uni0493" unicode="&#x493;" horiz-adv-x="430" 
d="M412 500c-0.666992 -26 -1.83301 -53 -3.5 -81s-4.5 -55.667 -8.5 -83h-26l-44 120h-135v-185h112v-52h-112v-170c38 -7.33301 68 -15.333 90 -24v-25h-246v25c11.333 6.66699 22.333 11.667 33 15s21.667 6.33301 33 9v170h-74v52h74v180
c-24.667 4 -46.667 11.667 -66 23v26h373z" />
    <glyph glyph-name="uni0494" unicode="&#x494;" horiz-adv-x="610" 
d="M207 368c18 10 40.668 20 68.001 30s60 15 98 15c31.333 0 59.333 -3.83301 84 -11.5s45.5 -20.334 62.5 -38.001s29.833 -40.334 38.5 -68.001s13 -61.5 13 -101.5c0 -47.333 -3.16699 -89 -9.5 -125s-17.833 -66.5 -34.5 -91.5s-39.167 -44.833 -67.5 -59.5
s-64.833 -24 -109.5 -28l-6 27c30.667 10.667 54.834 23.834 72.501 39.501s31 34.334 40 56.001s14.5 46.667 16.5 75s2.66699 60.833 2 97.5c-1.33301 60 -11.833 104.333 -31.5 133s-52.5 43 -98.5 43c-28 0 -53.333 -4 -76 -12s-43.334 -17.667 -62.001 -29v-267
c34 -5.33301 65.333 -13.333 94 -24v-29h-272v29c27.333 11.333 54.666 19.333 81.999 24v593c-13.333 2.66699 -27 6.16699 -41 10.5s-27.667 9.16602 -41 14.499v29h468c0 -13.333 -0.166992 -28.666 -0.5 -45.999s-1 -35 -2 -53s-2.16699 -36 -3.5 -54s-3 -34 -5 -48h-26
l-52 149h-201v-280z" />
    <glyph glyph-name="uni0495" unicode="&#x495;" horiz-adv-x="548" 
d="M412 500c-0.666992 -26 -1.83203 -52.498 -3.49902 -79.498s-4.16699 -54.167 -7.5 -81.5h-26l-45 117h-135v-234c16 17.333 35 31.333 57 42s49.667 16 83 16c45.333 0 80.5 -12.667 105.5 -38s37.5 -59.666 37.5 -102.999v-138c0 -41.333 -4 -75.5 -12 -102.5
s-19.5 -48.333 -34.5 -64s-33.5 -27 -55.5 -34s-47.333 -11.167 -76 -12.5l-5 28c18 5.33301 33 11.666 45 18.999s21.5 17.666 28.5 30.999s12 30.666 15 51.999s4.5 49 4.5 83v118c0 31.333 -6.83301 56.5 -20.5 75.5s-36.167 28.5 -67.5 28.5
c-18.667 0 -36.834 -2.83301 -54.501 -8.5s-34.5 -13.167 -50.5 -22.5v-143c36.667 -6 66 -14 88 -24v-25h-244v25c11.333 6.66699 22.333 11.667 33 15s21.667 6.33301 33 9v402c-24.667 4 -46.667 11.667 -66 23v26h373z" />
    <glyph glyph-name="uni0496" unicode="&#x496;" horiz-adv-x="980" 
d="M424 646c-14 4 -27.002 7.99707 -39.002 11.9971s-22.667 8.33301 -32 13v29h231v-29c-14.667 -7.33301 -36 -15.666 -64 -24.999v-277l68 14l168 263c-13.333 4 -25.833 8.16699 -37.5 12.5l-34.5 12.5v29h220v-29c-12 -5.33301 -24.333 -10 -37 -14
s-25.334 -7.66699 -38.001 -11l-182 -266l54 -73.5l60.5 -84l66 -87.5c23 -29.333 46.5 -57 70.5 -83h78c0 -13.333 -0.666992 -28.833 -2 -46.5s-3 -36 -5 -55s-4.16699 -37.333 -6.5 -55s-4.83301 -33.167 -7.5 -46.5h-25l-42 151h-66l-34 25
c-39.333 46 -75.166 95.5 -107.499 148.5l-102.5 161.5h-58v-282c11.333 -3.33301 22.333 -6.83301 33 -10.5s21 -8.16699 31 -13.5v-29h-232v29c20 10.667 44 18.667 72 24v291l-60 -15l-100 -158.5c-30.667 -51 -65.667 -99.5 -105 -145.5l-34 -25h-125v25l47 24
c24.667 26.667 48.667 54.334 72 83.001l67 85l60 81.5l51 72.5l-188 275c-27.333 8 -51 16.333 -71 25v29h221v-29c-9.33301 -4.66699 -19.666 -9.16699 -30.999 -13.5s-23.666 -8.16602 -36.999 -11.499l169 -269h64v269z" />
    <glyph glyph-name="uni0497" unicode="&#x497;" horiz-adv-x="748" 
d="M588 23c-11.333 15.333 -23.666 33.168 -36.999 53.501l-38.5 61.5l-35 57.5l-25.5 41.5h-48v-188c20.667 -5.33301 40.667 -13.333 60 -24v-25h-201v25c9.33301 4.66699 18.5 9 27.5 13s18.5 7.66699 28.5 11v194l-54 -10c-6 -9.33301 -14 -23 -24 -41l-33 -58l-37 -61
c-12.667 -20 -25 -36.667 -37 -50l-30 -23h-104v25l46 24c16.667 19.333 32.834 39.666 48.501 60.999l44.5 62l39 56.5c12 17.667 22.667 32.5 32 44.5c-25.333 28.667 -49.833 57.834 -73.5 87.501s-46.167 59.5 -67.5 89.5c-17.333 4 -34 12 -50 24v26h173v-26
c-12.667 -9.33301 -29.334 -17.333 -50.001 -24c18 -32 37.667 -62.167 59 -90.5l67 -90.5h51v181c-22 4.66699 -40.667 12.667 -56 24v26h194v-26c-6.66699 -5.33301 -14.167 -10 -22.5 -14s-18.5 -7.33301 -30.5 -10v-187l55 10l63.5 88.5c19 27 37.833 56.5 56.5 88.5
c-9.33301 3.33301 -18 6.66602 -26 9.99902s-16 8 -24 14v26h173v-26c-11.333 -8 -30.333 -16 -57 -24c-21.333 -29.333 -43.5 -58 -66.5 -86l-67.5 -84l34 -46l45 -60.5l50 -66.5l50 -64h58c-1.33301 -32 -2.83301 -63.833 -4.5 -95.5s-3.83398 -63.5 -6.50098 -95.5h-25
l-45 148h-51z" />
    <glyph glyph-name="uni0498" unicode="&#x498;" horiz-adv-x="554" 
d="M502 199c0 -31.333 -5.33105 -58.999 -15.998 -82.999s-25.334 -44.5 -44.001 -61.5s-40.5 -30.667 -65.5 -41s-51.5 -17.5 -79.5 -21.5c-8 -60 -19 -121 -33 -183h-26l-16 90.5c-5.33301 29.667 -10.333 59.5 -15 89.5c-31.333 2 -60.666 6.5 -87.999 13.5
s-50.333 15.167 -69 24.5c0 10.667 0.666992 22.834 2 36.501s3.16602 28 5.49902 43s5 30 8 45s6.16699 29.167 9.5 42.5h26l42 -140c4 -2 9.66699 -3.83301 17 -5.5s15.5 -3.33398 24.5 -5.00098s18.333 -2.83398 28 -3.50098s18.834 -1 27.501 -1
c24.667 0 47.167 4 67.5 12s37.833 19 52.5 33s26 30.333 34 49s12 39 12 61c0 26.667 -4.16699 49 -12.5 67s-19.5 32.5 -33.5 43.5s-30.167 18.833 -48.5 23.5s-37.5 7 -57.5 7l-77 -11c-4.66699 20.667 -5 40 -1 58h32c11.333 0 25 0.5 41 1.5s29.333 2.16699 40 3.5
c30.667 10.667 54.167 27.834 70.5 51.501s24.5 51.5 24.5 83.5c0 44 -12.5 78 -37.5 102s-59.5 36 -103.5 36c-22 0 -39.5 -1.83301 -52.5 -5.5s-21.833 -8.16699 -26.5 -13.5l-52 -122h-26c-3.33301 18 -6.16602 41 -8.49902 69s-3.16602 55.667 -2.49902 83
c10 8 22.167 14.5 36.5 19.5s29.166 9.16699 44.499 12.5s31.166 5.66602 47.499 6.99902s31.5 2 45.5 2c26.667 0 53.667 -2.33301 81 -7s52.166 -13.5 74.499 -26.5s40.5 -30.667 54.5 -53s21 -50.833 21 -85.5c0 -34 -9.83301 -65.833 -29.5 -95.5
s-50.834 -52.834 -93.501 -69.501v-4c20 -3.33301 38.833 -9.16602 56.5 -17.499s33 -19.333 46 -33s23.333 -30.5 31 -50.5s11.5 -43.667 11.5 -71z" />
    <glyph glyph-name="uni0499" unicode="&#x499;" horiz-adv-x="474" 
d="M205 35c20.667 0 38.4971 3.33301 53.4971 10s27.167 15.334 36.5 26.001s16.333 22.834 21 36.501s7 27.5 7 41.5c0 32 -6.83301 53.667 -20.5 65s-32.167 19 -55.5 23l-94 -15c-2.66699 8.66699 -4.16699 17.667 -4.5 27s1.16699 18.333 4.5 27h102
c6 2.66699 12.167 6.83398 18.5 12.501s12.333 12.667 18 21s10.334 18.166 14.001 29.499s5.5 24 5.5 38c0 32 -8.83301 55.167 -26.5 69.5s-40.834 21.5 -69.501 21.5c-13.333 0 -25.5 -0.833008 -36.5 -2.5s-18.167 -3.16699 -21.5 -4.5l-45 -113h-25
c-7.33301 22 -12.666 44 -15.999 66s-5.33301 43.667 -6 65c13.333 7.33301 33.666 14.666 60.999 21.999s62.333 11 105 11c54 0 95.833 -9.83301 125.5 -29.5s44.5 -48.834 44.5 -87.501c0 -16 -3.33301 -30.667 -10 -44s-15.167 -25.333 -25.5 -36s-22 -19.667 -35 -27
s-25.833 -13 -38.5 -17c36.667 -3.33301 67.334 -15.166 92.001 -35.499s37 -49.166 37 -86.499c0 -46.667 -14.333 -83.334 -43 -110.001s-67 -42.667 -115 -48c-4 -30 -8 -58.333 -12 -85s-9.66699 -55.334 -17 -86.001h-26c-6 30.667 -11.167 59.334 -15.5 86.001
l-13.5 84c-28.667 3.33301 -54.167 10.166 -76.5 20.499s-41.166 22.833 -56.499 37.5l18 67h20c8.66699 -9.33301 18.334 -20.5 29.001 -33.5l32 -38.5c14 -5.33301 34 -8 60 -8z" />
    <glyph glyph-name="uni049A" unicode="&#x49a;" horiz-adv-x="676" 
d="M382 700l221.001 0.000976562v-29c-13.333 -6 -26.333 -11 -39 -15s-25 -7.33301 -37 -10l-201 -266l56.5 -73.5l67 -84l73 -87.5l73.5 -84h76c0 -13.333 -0.666992 -28.833 -2 -46.5s-3 -35.834 -5 -54.501s-4.16699 -36.834 -6.5 -54.501s-4.83301 -33.167 -7.5 -46.5
h-25l-42 151h-63l-34 24c-39.333 46 -78.5 95.667 -117.5 149l-113.5 162h-49v-282c30.667 -5.33301 55.667 -13.333 75 -24v-29h-253v29c26.667 10.667 54 18.667 82 24v593c-30 4 -57.333 12.333 -82 25v29h253v-29c-10.667 -4.66699 -22.334 -9.16699 -35.001 -13.5
s-26 -8.16602 -40 -11.499v-277l60 14l187 263c-13.333 3.33301 -26 7 -38 11s-23.333 8.66699 -34 14v29z" />
    <glyph glyph-name="uni049B" unicode="&#x49b;" horiz-adv-x="554" 
d="M392 23c-30 36 -57.3301 72.001 -81.9971 108.001l-75 106h-40v-188c13.333 -3.33301 25.5 -6.83301 36.5 -10.5s20.5 -8.16699 28.5 -13.5v-25h-221v25c18 10.667 40 18.667 66 24v401c-23.333 4.66699 -45.333 12.667 -66 24v26h205v-26
c-6.66699 -4.66699 -13.834 -9 -21.501 -13s-16.834 -7.66699 -27.501 -11v-187l46 10l76 86c24 26.667 46.333 55.667 67 87l-31.5 13.5c-9.66699 4.33301 -18.834 9.16602 -27.501 14.499v26h193v-26c-6.66699 -5.33301 -15.5 -10 -26.5 -14s-24.5 -8.66699 -40.5 -14
l-72 -83c-25.333 -28 -52 -56 -80 -84l47.5 -54l51.5 -62l52.5 -63l50.5 -57h54c-1.33301 -32 -3 -63.833 -5 -95.5l-6 -95.5h-26l-45 148h-49z" />
    <glyph glyph-name="uni049C" unicode="&#x49c;" horiz-adv-x="713" 
d="M450 700l220.001 -0.000976562v-29c-13.333 -6 -26.333 -11 -39 -15s-25 -7.33301 -37 -10l-200 -265l57 -74l67.5 -85l73 -88.5l73.5 -84.5l48 -24v-25h-125l-34 24c-39.333 46 -78.333 96 -117 150l-112 163h-20v-155h-51v155h-47v-284
c30.667 -5.33301 55.667 -13.333 75 -24v-29h-253v29c26.667 10.667 54 18.667 82 24v593c-30 4 -57.333 12.333 -82 25v29h253v-29c-10.667 -4.66699 -22.334 -9.16699 -35.001 -13.5s-26 -8.16602 -40 -11.499v-278l47 5v161h51v-156l30 4l187 264
c-13.333 3.33301 -26 7 -38 11s-23.333 8.66699 -34 14v29z" />
    <glyph glyph-name="uni049D" unicode="&#x49d;" horiz-adv-x="632" 
d="M416 500l193.005 0.000976562v-26c-6.66699 -5.33301 -15.834 -10.5 -27.501 -15.5s-24.834 -9.16699 -39.501 -12.5l-72 -83c-25.333 -28 -52 -56 -80 -84l46.5 -53l49.5 -60l50 -61c16.667 -20 33 -38.667 49 -56l47 -24v-25h-117l-32 23c-30 36 -57.333 72 -82 108
l-75 106h-24v-125h-48v125h-59v-188c13.333 -3.33301 25.5 -6.83301 36.5 -10.5s20.5 -8.16699 28.5 -13.5v-25h-221v25c18 10.667 40 18.667 66 24v401c-23.333 4.66699 -45.333 12.667 -66 24v26h205v-26c-6.66699 -4.66699 -13.834 -9 -21.501 -13
s-16.834 -7.66699 -27.501 -11v-187l59 4v139h48v-135l30 2l76 86c24 26.667 46.333 55.667 67 87l-31.5 13.5c-9.66699 4.33301 -18.834 9.16602 -27.501 14.499v26z" />
    <glyph glyph-name="uni049E" unicode="&#x49e;" horiz-adv-x="668" 
d="M10 581l123.999 -0.000976562v65c-31.333 4 -58.666 12.333 -81.999 25v29h253v-29c-10.667 -4.66699 -22.334 -9.16699 -35.001 -13.5s-26 -8.16602 -40 -11.499v-65h110v-48h-110v-164l65 14l186 263c-13.333 3.33301 -25.833 7 -37.5 11s-23.167 8.66699 -34.5 14v29
h221v-29c-13.333 -6 -26.5 -11 -39.5 -15s-25.5 -7.33301 -37.5 -10l-199 -265l56.5 -74l66 -85l71 -88.5l72.5 -84.5l48 -24v-25h-125l-34 24c-39.333 46 -77.666 95.667 -114.999 149l-110 162h-54v-282c30.667 -5.33301 55.667 -13.333 75 -24v-29h-253v29
c26.667 10.667 54 18.667 82 24v480h-124v48z" />
    <glyph glyph-name="uni049F" unicode="&#x49f;" horiz-adv-x="526" 
d="M180 263l46.002 10.001l76 86c24 26.667 46.333 55.667 67 87l-31.5 13.5c-9.66699 4.33301 -18.834 9.16602 -27.501 14.499v26h193v-26c-6.66699 -5.33301 -15.5 -10 -26.5 -14s-24.5 -8.66699 -40.5 -14c-22.667 -27.333 -46.834 -55 -72.501 -83l-80.5 -84l46.5 -53
l50 -60l50.5 -61c16.667 -20 33 -38.667 49 -56l47 -24v-25h-117l-32 23c-30 36 -57.333 72 -82 108l-75 106h-40v-188c13.333 -3.33301 25.5 -6.83301 36.5 -10.5s20.5 -8.16699 28.5 -13.5v-25h-221v25c18 10.667 40 18.667 66 24v522h-87v52h87v59l-76 8v26
c18.667 8.66699 41 15.667 67 21l74 15h25v-129h157v-52h-157v-308z" />
    <glyph glyph-name="uni04A0" unicode="&#x4a0;" horiz-adv-x="762" 
d="M498 700h221v-29c-13.333 -6 -26.5 -11 -39.5 -15s-25.5 -7.33301 -37.5 -10l-200 -265l57.5 -74l68 -85l73 -88.5l73.5 -84.5l48 -24v-25h-125l-34 24c-39.333 46 -78.5 95.667 -117.5 149s-76.5 107.333 -112.5 162h-50v-282c30 -5.33301 55.333 -13.333 76 -24v-29
h-254v29c26.667 10.667 54 18.667 82 24v595h-129l-51 -141h-26c-2 14 -3.66699 29.5 -5 46.5s-2.33301 34.167 -3 51.5l-2 50.5c-0.666992 16.333 -1 31.166 -1 44.499h389v-29c-11.333 -4.66699 -23.333 -9.16699 -36 -13.5s-26 -8.16602 -40 -11.499v-277l60 14l187 263
c-13.333 3.33301 -25.833 7 -37.5 11s-23.167 8.66699 -34.5 14v29z" />
    <glyph glyph-name="uni04A1" unicode="&#x4a1;" horiz-adv-x="611" 
d="M315 500l0.00195312 -25.999c-13.333 -9.33301 -30 -17.333 -50 -24v-187l46 10l75.5 83c25 28.667 47.833 58.667 68.5 90l-32 13.5c-10 4.33301 -19.333 9.16602 -28 14.499v26h193v-26c-6.66699 -5.33301 -15.334 -10 -26.001 -14s-24 -8.66699 -40 -14
c-22.667 -27.333 -46.834 -55 -72.501 -83l-80.5 -84l46.5 -53l50 -60l50.5 -61c16.667 -20 33 -38.667 49 -56l46 -24v-25h-116l-32 23c-30 36 -57.5 72 -82.5 108l-75.5 106h-40v-188c27.333 -6 49 -14 65 -24v-25h-221v25c18 10.667 40 18.667 66 24v407h-79l-44 -110
h-25c-3.33301 25.333 -6 51 -8 77s-3.33301 51.667 -4 77h300z" />
    <glyph glyph-name="uni04A2" unicode="&#x4a2;" horiz-adv-x="743" 
d="M282 0l-253.002 0.00195312v29c26.667 10.667 54 18.667 82 24v593c-31.333 4.66699 -58.666 13 -81.999 25v29h253v-29c-11.333 -6 -23.333 -11 -36 -15s-25.667 -7.33301 -39 -10v-261h314v261c-14 3.33301 -27.167 7 -39.5 11s-24.166 8.66699 -35.499 14v29h253v-29
c-12 -6.66699 -25.167 -11.834 -39.5 -15.501s-28.5 -6.83398 -42.5 -9.50098v-594h110c0 -13.333 -0.666992 -28.833 -2 -46.5s-3 -36 -5 -55s-4.16699 -37.333 -6.5 -55s-4.5 -33.167 -6.5 -46.5h-26l-42 151h-193v29c24 10.667 49 18.667 75 24v280h-314v-280
c13.333 -2.66699 26.333 -6 39 -10s24.667 -8.66699 36 -14v-29z" />
    <glyph glyph-name="uni04A3" unicode="&#x4a3;" horiz-adv-x="613" 
d="M254 0h-214.997v25c9.33301 5.33301 19.666 9.83301 30.999 13.5s23 7.16699 35 10.5v401c-12 3.33301 -23.667 6.83301 -35 10.5s-21.666 8.16699 -30.999 13.5v26h215v-26c-15.333 -9.33301 -35 -17.333 -59 -24v-175h222v175c-23.333 4 -43.333 12 -60 24v26h216v-26
c-18 -11.333 -40 -19.333 -66 -24v-407h79c-1.33301 -32 -2.83301 -63.833 -4.5 -95.5s-3.83398 -63.5 -6.50098 -95.5h-25l-45 148h-148v25c16.667 12 36.667 20 60 24v182h-222v-182c13.333 -2.66699 24.666 -6 33.999 -10s17.666 -8.66699 24.999 -14v-25z" />
    <glyph glyph-name="uni04A4" unicode="&#x4a4;" horiz-adv-x="917" 
d="M617 53c34.667 -5.33301 66.6631 -13.332 95.9961 -23.999v-29h-267v29c11.333 6 23.833 10.167 37.5 12.5s26.167 6.16602 37.5 11.499v280h-314v-280c13.333 -2.66699 26.333 -6 39 -10s24.667 -8.66699 36 -14v-29h-253v29c26.667 10.667 54 18.667 82 24v593
c-31.333 4.66699 -58.666 13 -81.999 25v29h253v-29c-11.333 -6 -23.333 -11 -36 -15s-25.667 -7.33301 -39 -10v-261h314v261c-5.33301 0.666992 -11.666 1.83398 -18.999 3.50098s-14.666 3.66699 -21.999 6s-14.166 4.66602 -20.499 6.99902
s-10.833 5.16602 -13.5 8.49902v29h461c0 -13.333 -0.166992 -28.666 -0.5 -45.999s-1 -35.333 -2 -54l-3 -54.5c-1 -17.667 -2.5 -33.5 -4.5 -47.5h-26l-52 150h-202v-595z" />
    <glyph glyph-name="uni04A5" unicode="&#x4a5;" horiz-adv-x="743" 
d="M357 0l0.00292969 25c16.667 12 36.667 20 60 24v182h-222v-182c13.333 -2.66699 24.666 -6 33.999 -10s17.666 -8.66699 24.999 -14v-25h-215v25c9.33301 5.33301 19.666 9.83301 30.999 13.5s23 7.16699 35 10.5v401c-12 3.33301 -23.667 6.83301 -35 10.5
s-21.666 8.16699 -30.999 13.5v26h215v-26c-15.333 -9.33301 -35 -17.333 -59 -24v-175h222v175c-23.333 4 -43.333 12 -60 24v26h367c-0.666992 -26 -1.83398 -53 -3.50098 -81s-4.5 -55.667 -8.5 -83h-26l-44 120h-135v-407c38 -7.33301 68 -15.333 90 -24v-25h-240z" />
    <glyph glyph-name="uni04A6" unicode="&#x4a6;" horiz-adv-x="1010" 
d="M282 0l-253 0.00292969v29c10 5.33301 21.667 10 35 14s29 7.33301 47 10v593c-13.333 2.66699 -27 6.16699 -41 10.5s-27.667 9.16602 -41 14.499v29h660v-29c-12.667 -6.66699 -26 -11.834 -40 -15.501s-28 -6.83398 -42 -9.50098v-278c18 10 40.667 20 68 30
s60 15 98 15c31.333 0 59.333 -3.83301 84 -11.5s45.5 -20.334 62.5 -38.001s29.833 -40.334 38.5 -68.001s13 -61.5 13 -101.5c0 -47.333 -3.16699 -89 -9.5 -125s-17.833 -66.5 -34.5 -91.5s-39.167 -44.833 -67.5 -59.5s-64.833 -24 -109.5 -28l-6 27
c30 10.667 54 23.834 72 39.501s31.5 34.334 40.5 56.001s14.5 46.667 16.5 75s2.66699 60.833 2 97.5c-1.33301 59.333 -12 103.5 -32 132.5s-52.333 43.5 -97 43.5c-28 0 -53.5 -4 -76.5 -12s-43.833 -17.667 -62.5 -29v-267c27.333 -3.33301 54.333 -11.333 81 -24v-29
h-252v29c14.667 9.33301 39.667 17.333 75 24v595h-304v-595c26 -5.33301 51 -13.333 75 -24v-29z" />
    <glyph glyph-name="uni04A7" unicode="&#x4a7;" horiz-adv-x="872" 
d="M730 114c0 52 -7.33301 92.6689 -22 122.002s-41.334 44 -80.001 44c-33.333 0 -59.666 -9.16699 -78.999 -27.5s-33.666 -40.833 -42.999 -67.5v-136c22.667 -4 44.667 -12 66 -24v-25h-215v25c6.66699 4.66699 14.5 9 23.5 13s20.833 7.66699 35.5 11v407h-221v-407
c13.333 -4 24.666 -8 33.999 -12s17.666 -8 24.999 -12v-25h-215v25c12.667 7.33301 24.334 12.833 35.001 16.5s21 6.16699 31 7.5v401c-14 3.33301 -26.667 7 -38 11s-20.666 8.33301 -27.999 13v26h533v-26c-8.66699 -5.33301 -18.334 -10.333 -29.001 -15
s-23 -7.66699 -37 -9v-210c6 12.667 13.5 25.167 22.5 37.5s19.667 23.166 32 32.499s26.166 17 41.499 23s32 9 50 9c27.333 0 51.5 -3.33301 72.5 -10s38.5 -18 52.5 -34s24.667 -37.5 32 -64.5s11 -61.167 11 -102.5v-100c0 -83.333 -15.667 -143.833 -47 -181.5
s-75.666 -58.167 -132.999 -61.5l-5 28c18 5.33301 33 13.166 45 23.499s21.833 24 29.5 41s13 37.833 16 62.5s4.5 54 4.5 88v83z" />
    <glyph glyph-name="uni04A8" unicode="&#x4a8;" horiz-adv-x="845" 
d="M777 63c-7.33301 -22 -21.8271 -40.002 -43.4941 -54.002s-49.167 -21 -82.5 -21c-23.333 0 -46 3.83301 -68 11.5s-39.333 16.167 -52 25.5c-10 -8.66699 -26.5 -17 -49.5 -25s-49.5 -12 -79.5 -12c-51.333 0 -98.5 9 -141.5 27s-79.833 43.167 -110.5 75.5
s-54.5 70.666 -71.5 114.999s-25.5 92.5 -25.5 144.5c0 48.667 7.16699 94.834 21.5 138.501s34.666 82 60.999 115s58.333 59.333 96 79s79.834 29.5 126.501 29.5c21.333 0 40.166 -3.66699 56.499 -11s28.166 -17.333 35.499 -30l-8 -18c-6 2.66699 -14.333 4.5 -25 5.5
s-18.667 1.5 -24 1.5c-36.667 0 -69.334 -8 -98.001 -24s-53 -38 -73 -66s-35.333 -60.833 -46 -98.5s-16 -78.5 -16 -122.5c0 -42.667 6.16699 -82.834 18.5 -120.501s30 -70.5 53 -98.5s51.167 -50 84.5 -66s71 -24 113 -24c13.333 0 23.666 0.5 30.999 1.5
s15.666 3.83301 24.999 8.5c-21.333 10.667 -42.333 25.5 -63 44.5s-39.167 41.667 -55.5 68s-29.5 55.833 -39.5 88.5s-15 68.334 -15 107.001c0 42.667 6.66699 82.334 20 119.001s31.333 68.334 54 95.001s49 47.5 79 62.5s61.333 22.5 94 22.5
c29.333 0 58 -6.16699 86 -18.5s53 -31 75 -56s39.667 -56.167 53 -93.5s20 -81.333 20 -132c0 -40 -6.66699 -76.833 -20 -110.5s-29.833 -63.5 -49.5 -89.5s-40.834 -47.833 -63.501 -65.5s-43.667 -30.5 -63 -38.5c6.66699 -3.33301 15.5 -6.5 26.5 -9.5
s21.833 -4.5 32.5 -4.5c23.333 0 43.5 3 60.5 9s33.167 15.667 48.5 29zM419.006 349.998c0 -32.667 3.66602 -63.166 10.999 -91.499s17 -54 29 -77s25.833 -43.333 41.5 -61s31.834 -32.167 48.501 -43.5c20.667 11.333 39.5 26.666 56.5 45.999s31.5 41.333 43.5 66
s21.167 51.5 27.5 80.5s9.5 59.167 9.5 90.5c0 35.333 -2.5 68 -7.5 98s-12.667 55.833 -23 77.5s-23.333 38.667 -39 51s-34.167 18.5 -55.5 18.5c-24.667 0 -46 -6.66699 -64 -20s-32.667 -31.5 -44 -54.5s-19.833 -50 -25.5 -81s-8.5 -64.167 -8.5 -99.5z" />
    <glyph glyph-name="uni04A9" unicode="&#x4a9;" horiz-adv-x="659" 
d="M630 32c-3.33301 -8 -8.16992 -14.8271 -14.5029 -20.4941s-13.333 -10.167 -21 -13.5s-15.667 -5.83301 -24 -7.5s-15.833 -2.5 -22.5 -2.5c-19.333 0 -39.333 1.83301 -60 5.5s-36.667 9.83398 -48 18.501c-17.333 -8 -36.333 -14 -57 -18s-39.667 -6 -57 -6
c-40 0 -77.5 6.16699 -112.5 18.5s-65.167 30 -90.5 53s-45.333 50.667 -60 83s-22 68.166 -22 107.499c0 36 6.16699 69.833 18.5 101.5s29.166 59.5 50.499 83.5s46.333 42.833 75 56.5s59.334 20.5 92.001 20.5c20.667 0 38 -3.33301 52 -10s21 -17.667 21 -33l-5 -7
c-7.33301 2 -15.666 3.5 -24.999 4.5s-17.666 1.5 -24.999 1.5c-24 -0.666992 -45.667 -6.33398 -65 -17.001s-35.666 -25.5 -48.999 -44.5s-23.666 -41.833 -30.999 -68.5s-11 -56 -11 -88c0 -30 4.83301 -58.333 14.5 -85s23.167 -49.834 40.5 -69.501
s38 -35.167 62 -46.5s50.333 -17 79 -17c11.333 0 23.333 0.5 36 1.5s21.667 2.5 27 4.5c-19.333 5.33301 -37.833 14.666 -55.5 27.999s-33.167 29.166 -46.5 47.499s-23.833 38.333 -31.5 60s-11.5 43.5 -11.5 65.5c0 38.667 5.5 71.667 16.5 99s25.5 49.666 43.5 66.999
s38.667 30.166 62 38.499s47.333 12.5 72 12.5c19.333 0 39.5 -3.83301 60.5 -11.5s40.167 -19.667 57.5 -36s31.5 -37.333 42.5 -63s16.5 -56.5 16.5 -92.5c0 -25.333 -4.5 -49.833 -13.5 -73.5s-20.5 -45 -34.5 -64s-29.5 -35.333 -46.5 -49s-33.833 -23.5 -50.5 -29.5
c4.66699 -1.33301 10.667 -2.5 18 -3.5s15.166 -1.83301 23.499 -2.5s16.333 -1 24 -1h19.5c22 0 41.667 4.66699 59 14zM348.996 242.006c0 -42 7.33301 -79.502 22 -112.502s36 -57.5 64 -73.5c12 6.66699 23.667 16.334 35 29.001s21.333 27.834 30 45.501
s15.5 37.5 20.5 59.5s7.5 45.667 7.5 71c0 18.667 -1.5 37.167 -4.5 55.5s-8 34.5 -15 48.5s-16 25.333 -27 34s-24.833 13 -41.5 13c-30 0 -52.667 -15.833 -68 -47.5s-23 -72.5 -23 -122.5z" />
    <glyph glyph-name="uni04AA" unicode="&#x4aa;" horiz-adv-x="644" 
d="M547 182l25.9922 0.00195312c3.33301 -18.667 6.33301 -42.167 9 -70.5s3.33398 -55.833 2.00098 -82.5c-18.667 -14.667 -42.834 -24.834 -72.501 -30.501s-58.5 -9.16699 -86.5 -10.5c-3.33301 -29.333 -7.66602 -58.833 -12.999 -88.5
s-11.666 -59.834 -18.999 -90.501h-26c-6 31.333 -11.5 62.333 -16.5 93l-15.5 91c-89.333 11.333 -158.666 45.833 -207.999 103.5s-74 142.167 -74 253.5c0 65.333 9 120.833 27 166.5s42.333 83 73 112s66.334 50.167 107.001 63.5s83.334 20 128.001 20
c44 0 81 -2.83301 111 -8.5s56.333 -14.167 79 -25.5c0 -10.667 -0.333008 -23.167 -1 -37.5s-1.66699 -29.5 -3 -45.5s-3 -31.667 -5 -47s-4 -29.333 -6 -42h-26l-52 144c-7.33301 4 -19.5 6.66699 -36.5 8s-33.833 2 -50.5 2c-33.333 0 -64.833 -6.16699 -94.5 -18.5
s-55.667 -31.333 -78 -57s-40.166 -58 -53.499 -97s-20 -84.833 -20 -137.5c0 -47.333 6 -90.166 18 -128.499s29.333 -71 52 -98s50.334 -47.667 83.001 -62s69.667 -21.5 111 -21.5c22 0 40.333 1.66699 55 5s24.334 7.66602 29.001 12.999z" />
    <glyph glyph-name="uni04AB" unicode="&#x4ab;" horiz-adv-x="466" 
d="M427 70c-11.333 -21.333 -28.499 -39.335 -51.499 -54.002s-50.5 -23.667 -82.5 -27c-4 -29.333 -8 -57.166 -12 -83.499s-9.66699 -54.833 -17 -85.5h-26c-6 32 -11.167 61.667 -15.5 89l-13.5 86c-56.667 12.667 -98.834 41.334 -126.501 86.001s-41.5 101 -41.5 169
c0 84.667 20.667 149.5 62 194.5s97.666 67.5 168.999 67.5c32.667 0 61.834 -2.83301 87.501 -8.5s47.5 -13.167 65.5 -22.5c-2 -22 -5.66699 -46.667 -11 -74s-12 -50 -20 -68h-27l-42 119c-4.66699 3.33301 -10 5.83301 -16 7.5s-16 2.5 -30 2.5
c-45.333 0 -80.333 -16.5 -105 -49.5s-37 -88.833 -37 -167.5c0 -25.333 3.5 -50 10.5 -74s17.667 -45.5 32 -64.5s32.333 -34.167 54 -45.5s46.834 -17 75.501 -17c23.333 0 43.666 3.33301 60.999 10s32 14.667 44 24z" />
    <glyph glyph-name="uni04AC" unicode="&#x4ac;" horiz-adv-x="619" 
d="M169 29c14.667 5.33301 29.5 10.001 44.5 14.001s31.167 7.33301 48.5 10v595h-153l-53 -143h-25c-2 13.333 -3.66699 28.5 -5 45.5s-2.5 34.333 -3.5 52s-1.83301 35 -2.5 52s-1 32.167 -1 45.5h581c0 -13.333 -0.333008 -28.333 -1 -45s-1.5 -33.834 -2.5 -51.501
l-3 -52c-1 -17 -2.5 -32.5 -4.5 -46.5h-26l-52 143h-153v-596h110c0 -13.333 -0.666992 -28.833 -2 -46.5s-3 -36 -5 -55s-4.16699 -37.333 -6.5 -55s-4.83301 -33.167 -7.5 -46.5h-25l-42 151h-211v29z" />
    <glyph glyph-name="uni04AD" unicode="&#x4ad;" horiz-adv-x="497" 
d="M137 25c20.667 10.667 42.668 18.666 66.001 23.999v407h-93l-44 -120h-26c-3.33301 28.667 -6 56.834 -8 84.501s-3.33301 54.167 -4 79.5h440c-0.666992 -24 -1.83398 -50.167 -3.50098 -78.5s-4.16699 -56.833 -7.5 -85.5h-26l-44 120h-94v-412h88
c-1.33301 -32 -3 -64 -5 -96l-6 -96h-25l-45 148h-163v25z" />
    <glyph glyph-name="uni04AE" unicode="&#x4ae;" horiz-adv-x="644" 
d="M424 700l219.999 0.00195312v-29c-25.333 -12.667 -50.666 -21 -75.999 -25l-189 -348v-245c26 -3.33301 51.333 -11.333 76 -24v-29h-254v29c24 12 51.333 20 82 24v244l-202 349c-15.333 2.66699 -29.5 6.16699 -42.5 10.5s-25.833 9.16602 -38.5 14.499v29h265v-29
c-10 -4 -21.333 -8.16699 -34 -12.5s-27 -8.5 -43 -12.5l164 -294l154 294c-15.333 3.33301 -29.833 7.16602 -43.5 11.499s-26.5 8.83301 -38.5 13.5v29z" />
    <glyph glyph-name="uni04AF" unicode="&#x4af;" horiz-adv-x="507" 
d="M369 -200l-222 -0.000976562v25c10 5.33301 20.333 9.83301 31 13.5s22.334 7.16699 35.001 10.5v194l-170 407c-19.333 6.66699 -37 14.667 -53 24v26h209v-25c-8.66699 -4.66699 -17.5 -9.16699 -26.5 -13.5s-19.167 -8.16602 -30.5 -11.499l116 -301l20 -65h2l16 66
l106 300c-10.667 2.66699 -20.5 6 -29.5 10s-17.5 8.66699 -25.5 14v26h170v-26c-6.66699 -4.66699 -14.834 -9 -24.501 -13s-20.5 -7.66699 -32.5 -11l-157 -405v-196c13.333 -3.33301 25.333 -6.83301 36 -10.5s20.667 -8.16699 30 -13.5v-25z" />
    <glyph glyph-name="uni04B0" unicode="&#x4b0;" horiz-adv-x="644" 
d="M425 700l218.999 0.00195312v-29c-25.333 -12.667 -50.666 -21 -75.999 -25l-189 -348h145v-52h-145v-193c26 -3.33301 51.333 -11.333 76 -24v-29h-254v29c24 12 51.333 20 82 24v193h-145v52h144l-201 348c-15.333 2.66699 -29.5 6.16699 -42.5 10.5
s-25.833 9.16602 -38.5 14.499v29h265v-29c-10 -4 -21.333 -8.16699 -34 -12.5s-27 -8.5 -43 -12.5l164 -294l154 294c-15.333 3.33301 -29.833 7.16602 -43.5 11.499s-26.167 8.83301 -37.5 13.5v29z" />
    <glyph glyph-name="uni04B1" unicode="&#x4b1;" horiz-adv-x="507" 
d="M91 52l119 -0.000976562l-167 398c-19.333 6.66699 -37 14.667 -53 24v26h209v-25c-8.66699 -4.66699 -17.5 -9.16699 -26.5 -13.5s-19.167 -8.16602 -30.5 -11.499l91 -237l43 -129h2l40 130l84 236c-10.667 2.66699 -20.5 6 -29.5 10s-17.5 8.66699 -25.5 14v26h170
v-26c-6.66699 -4.66699 -14.834 -9 -24.501 -13s-20.5 -7.66699 -32.5 -11l-155 -398h121v-52h-122l-1 -151c13.333 -3.33301 25.333 -6.83301 36 -10.5s20.667 -8.16699 30 -13.5v-25h-222v25c10 5.33301 20.333 9.83301 31 13.5s22.334 7.16699 35.001 10.5v151h-122v52z
" />
    <glyph glyph-name="uni04B2" unicode="&#x4b2;" horiz-adv-x="686" 
d="M395 29c24 12 48.999 19.999 74.999 23.999l-158 251l-152 -252c14 -2 27.833 -4.5 41.5 -7.5s26.834 -8.16699 39.501 -15.5v-29h-231v29c12.667 6.66699 25.167 11.667 37.5 15s24.5 6.33301 36.5 9l196 299l-188 294l-39.5 12c-13 4 -26.167 8.33301 -39.5 13v29h265
v-29c-10.667 -4 -22.167 -8 -34.5 -12s-26.5 -8.33301 -42.5 -13l140 -226l136 226c-26 6 -53.333 14.333 -82 25v29h230v-29c-11.333 -4.66699 -23.333 -9.16699 -36 -13.5s-25.667 -8.16602 -39 -11.499l-176 -271l208 -323h100c0 -13.333 -0.666992 -28.833 -2 -46.5
s-3 -36 -5 -55s-4.16699 -37.333 -6.5 -55s-4.5 -33.167 -6.5 -46.5h-26l-42 151h-199v29z" />
    <glyph glyph-name="uni04B3" unicode="&#x4b3;" horiz-adv-x="519" 
d="M304 24l26.002 14.499c8 4.33301 16 7.83301 24 10.5l-111 165l-112 -165c9.33301 -3.33301 18 -7 26 -11s16 -8.33301 24 -13v-25h-171v25c18.667 11.333 37.334 19.333 56.001 24l149 199l-150 202c-9.33301 3.33301 -17.833 6.83301 -25.5 10.5
s-15.5 8.16699 -23.5 13.5v26h201v-25c-8 -5.33301 -15.833 -10.166 -23.5 -14.499s-16.167 -7.83301 -25.5 -10.5l104 -150l102 150c-22.667 7.33301 -39.334 15.333 -50.001 24v26h167v-26c-12.667 -8.66699 -31.334 -16.667 -56.001 -24l-137 -182l162 -225h73
c-1.33301 -32 -2.83301 -63.833 -4.5 -95.5s-3.83398 -63.5 -6.50098 -95.5h-25l-45 148h-148v24z" />
    <glyph glyph-name="uni04B4" unicode="&#x4b4;" horiz-adv-x="885" 
d="M169 0l-0.000976562 29c14.667 5.33301 29.334 10 44.001 14s30.667 7.33301 48 10v595h-153l-52 -143h-25c-2 13.333 -3.66699 28.5 -5 45.5s-2.5 34.333 -3.5 52s-1.83301 35 -2.5 52s-1 32.167 -1 45.5h528c0 -13.333 -0.333008 -28.333 -1 -45
s-1.5 -33.834 -2.5 -51.501l-3 -52c-1 -17 -2.5 -32.5 -4.5 -46.5h-26l-52 143h-101v-596h302v594c-12 3.33301 -23.167 6.83301 -33.5 10.5s-20.5 8.5 -30.5 14.5v29h242v-29c-13.333 -5.33301 -26.833 -10.166 -40.5 -14.499s-27.5 -7.83301 -41.5 -10.5v-594h115
c-0.666992 -13.333 -1.66699 -28.833 -3 -46.5s-3 -36 -5 -55s-4.16699 -37.333 -6.5 -55s-4.5 -33.167 -6.5 -46.5h-26l-42 151h-612z" />
    <glyph glyph-name="uni04B5" unicode="&#x4b5;" horiz-adv-x="775" 
d="M293 44h274.004v406c-9.33301 2 -18.833 5.16699 -28.5 9.5s-19.834 9.16602 -30.501 14.499v26h215v-26c-8.66699 -4.66699 -18.334 -9 -29.001 -13s-23 -7.66699 -37 -11v-406h89c-1.33301 -32 -2.83301 -64 -4.5 -96s-3.83398 -64 -6.50098 -96h-25l-45 148h-528v25
c18 10.667 40 18.667 66 24v407h-93l-44 -120h-26c-3.33301 28.667 -6 56.834 -8 84.501s-3.33301 54.167 -4 79.5h439c-0.666992 -24 -1.83398 -50.167 -3.50098 -78.5s-4.16699 -56.833 -7.5 -85.5h-26l-44 120h-93v-412z" />
    <glyph glyph-name="uni04B6" unicode="&#x4b6;" horiz-adv-x="667" 
d="M353 29c16 7.33301 31.5 12.833 46.5 16.5s30.167 6.16699 45.5 7.5v257c-18 -10 -41.833 -20 -71.5 -30s-63.5 -15 -101.5 -15c-28 0 -53.667 2.66699 -77 8s-43.5 15 -60.5 29s-30.167 33 -39.5 57s-14 54.667 -14 92v195c-12 2 -24 5.16699 -36 9.5s-24 9.5 -36 15.5
v29h234v-29c-9.33301 -4.66699 -19.333 -9.16699 -30 -13.5s-22.667 -8.16602 -36 -11.499v-176c0 -46.667 9.5 -83.834 28.5 -111.501s50.5 -41.5 94.5 -41.5c28 0 54.667 4 80 12s47 17.667 65 29v288c-12 3.33301 -24 7.16602 -36 11.499s-23.667 8.83301 -35 13.5v29
h233v-29c-9.33301 -4.66699 -19.5 -9.16699 -30.5 -13.5s-22.833 -8.16602 -35.5 -11.499v-594h111c0 -13.333 -0.666992 -28.833 -2 -46.5s-3 -36 -5 -55s-4.16699 -37.333 -6.5 -55s-4.83301 -33.167 -7.5 -46.5h-25l-42 151h-211v29z" />
    <glyph glyph-name="uni04B7" unicode="&#x4b7;" horiz-adv-x="558" 
d="M283 25c27.333 11.333 54 19.334 80 24.001v179c-16 -17.333 -35 -31.5 -57 -42.5s-49.667 -16.5 -83 -16.5c-45.333 0 -80.333 12.667 -105 38s-37 59.666 -37 102.999v140c-25.333 4.66699 -47.333 12.667 -66 24v26h215v-26c-6.66699 -4.66699 -15 -9.16699 -25 -13.5
s-21.333 -7.83301 -34 -10.5v-120c0 -31.333 6.66699 -56.5 20 -75.5s35.666 -28.5 66.999 -28.5c18.667 0 36.834 2.83301 54.501 8.5s34.5 13.167 50.5 22.5v193c-20 4 -39.667 12 -59 24v26h215v-26c-18 -11.333 -40 -19.333 -66 -24v-407h83
c-1.33301 -32 -3 -63.833 -5 -95.5l-6 -95.5h-26l-45 148h-171v25z" />
    <glyph glyph-name="uni04B8" unicode="&#x4b8;" horiz-adv-x="664" 
d="M304 266c-4 -0.666992 -7.99805 -0.999023 -11.998 -0.999023h-13c-28 0 -54 2.66699 -78 8s-44.833 15 -62.5 29s-31.667 33 -42 57s-15.5 54.667 -15.5 92v195c-12 2 -24 5.16699 -36 9.5s-24 9.5 -36 15.5v29h243v-29c-9.33301 -4.66699 -20.833 -9.16699 -34.5 -13.5
s-27.167 -8.16602 -40.5 -11.499v-176c0 -46 10.5 -82.833 31.5 -110.5s52.833 -41.834 95.5 -42.501v153h52v-150c22 3.33301 43.667 8.5 65 15.5s38.666 14.5 51.999 22.5v288c-12 3.33301 -24 7.16602 -36 11.499s-23.667 8.83301 -35 13.5v29h233v-29
c-9.33301 -4.66699 -19.5 -9.16699 -30.5 -13.5s-22.833 -8.16602 -35.5 -11.499v-593c13.333 -2.66699 25.333 -6 36 -10s20.667 -8.66699 30 -14v-29h-254v29c16 7.33301 31.5 12.833 46.5 16.5s30.167 6.16699 45.5 7.5v257c-12 -7.33301 -28.333 -14.333 -49 -21
s-43.334 -12.334 -68.001 -17.001v-144h-52v138z" />
    <glyph glyph-name="uni04B9" unicode="&#x4b9;" horiz-adv-x="620" 
d="M282 170c-5.33301 -0.666992 -10.165 -0.999023 -14.498 -0.999023h-13.5c-32.667 0 -60 3.33301 -82 10s-39.833 16.167 -53.5 28.5s-23.334 27.166 -29.001 44.499s-8.5 36.666 -8.5 57.999v140c-25.333 4.66699 -47.333 12.667 -66 24v26h215v-26
c-6.66699 -4.66699 -15 -9.16699 -25 -13.5s-21.333 -7.83301 -34 -10.5v-120c0 -30.667 8 -55.334 24 -74.001s45 -28.667 87 -30v160h47v-157c17.333 2.66699 34.833 6.33398 52.5 11.001s32.167 10.334 43.5 17.001v193c-21.333 4 -41.333 12 -60 24v26h216v-26
c-18 -11.333 -40 -19.333 -66 -24v-401c13.333 -3.33301 25.333 -6.83301 36 -10.5s20.667 -8.16699 30 -13.5v-25h-236v25c27.333 11.333 54 19.333 80 24v179c-10.667 -11.333 -24.334 -21 -41.001 -29s-35 -14.667 -55 -20v-87h-47v78z" />
    <glyph glyph-name="uni04BA" unicode="&#x4ba;" horiz-adv-x="636" 
d="M29.0371 700l253.986 -0.00195312v-28.998c-15.999 -7.33301 -31.498 -12.833 -46.4971 -16.499c-14.999 -3.66699 -30.165 -6.16699 -45.4971 -7.5v-256.984c17.999 9.99902 41.8311 19.999 71.4961 29.999c29.665 9.99902 63.4961 14.999 101.493 14.999
c27.998 0 53.6631 -2.66699 76.9951 -8s43.4971 -14.999 60.4961 -28.998s30.165 -32.998 39.498 -56.9971c9.33301 -23.998 13.999 -54.6631 13.999 -91.9941v-194.988c11.999 -1.99902 23.998 -5.16504 35.9971 -9.49805s23.998 -9.49902 35.9971 -15.498v-28.998
h-233.986v28.998c9.33301 4.66699 19.332 9.16699 29.998 13.5s22.665 8.16602 35.998 11.499v175.989c0 46.6641 -9.49902 83.8281 -28.498 111.493s-50.4971 41.498 -94.4941 41.498c-27.999 0 -54.6641 -4 -79.9951 -11.999
c-25.332 -8 -46.9971 -17.666 -64.9961 -28.999v-287.982c11.999 -3.33301 23.998 -7.16602 35.9971 -11.499s23.665 -8.83301 34.998 -13.5v-28.998h-232.985v28.998c9.33301 4.66699 19.499 9.16699 30.498 13.5s22.832 8.16602 35.498 11.499v592.964
c-13.333 2.66699 -25.499 6 -36.498 10c-10.999 3.99902 -20.832 8.66504 -29.498 13.998v28.998z" />
    <glyph glyph-name="uni04BB" unicode="&#x4bb;" horiz-adv-x="587" 
d="M570 0h-215.998v25c16 8.66699 36 16.667 60 24v234c0 52 -7.33301 92.833 -22 122.5s-41.334 44.5 -80.001 44.5c-17.333 0 -33 -3.16699 -47 -9.5s-26.667 -14.5 -38 -24.5s-21 -21.5 -29 -34.5s-14 -26.5 -18 -40.5v-292c10.667 -2.66699 20.834 -5.66699 30.501 -9
s19.167 -8.33301 28.5 -15v-25h-215v25c20.667 10.667 42.667 18.667 66 24v633l-76 8v26c19.333 8 41.833 15 67.5 21s50.167 11 73.5 15h25v-353h1c14 31.333 34.167 58 60.5 80s58.166 33 95.499 33c26.667 0 50.5 -3.16699 71.5 -9.5s38.5 -17.5 52.5 -33.5
s24.667 -37.5 32 -64.5s11 -61.167 11 -102.5v-253c11.333 -2.66699 22.666 -5.66699 33.999 -9s22 -8.33301 32 -15v-25z" />
    <glyph glyph-name="uni04BC" unicode="&#x4bc;" horiz-adv-x="816" 
d="M478 712c42.667 0 81.5 -6.16406 116.5 -18.4971s65 -31 90 -56s44.333 -56.167 58 -93.5s20.5 -81 20.5 -131c0 -17.333 -0.5 -31.5 -1.5 -42.5s-2.5 -21.833 -4.5 -32.5h-495c0 -46.667 7 -87.667 21 -123s33 -64.666 57 -87.999s51.5 -41 82.5 -53
s63 -18.167 96 -18.5s66.167 4.66699 99.5 15s64 26.166 92 47.499l10 -21c-26.667 -38 -60.167 -65.667 -100.5 -83s-79.833 -26 -118.5 -26c-47.333 0 -91.333 7.33301 -132 22s-76 36.667 -106 66s-53.833 65.833 -71.5 109.5s-27.167 94.5 -28.5 152.5
c-27.333 0.666992 -51.166 5 -71.499 13s-37.333 18.833 -51 32.5s-24 29.167 -31 46.5s-10.5 35.333 -10.5 54c0 14 2.5 30.167 7.5 48.5s13.5 34.166 25.5 47.499c15.333 0 32.333 -3.33301 51 -10s34.667 -14.334 48 -23.001l8 -16l-82 -79
c7.33301 -21.333 21 -36.833 41 -46.5s42 -14.834 66 -15.501c4 52.667 15 99.167 33 139.5s41.167 74 69.5 101s60.666 47.333 96.999 61s74.5 20.5 114.5 20.5zM479 660.003c-31.333 0 -59.832 -6.16797 -85.499 -18.501s-47.834 -30 -66.501 -53
s-33.667 -51.167 -45 -84.5s-18 -71.333 -20 -114h400c0.666992 7.33301 1.16699 14.333 1.5 21s0.5 13.334 0.5 20.001c0 34 -4.66699 65 -14 93s-22.166 52 -38.499 72s-35.833 35.667 -58.5 47s-47.334 17 -74.001 17z" />
    <glyph glyph-name="uni04BD" unicode="&#x4bd;" horiz-adv-x="604" 
d="M548 70c-5.33301 -11.333 -13.665 -22 -24.998 -32s-24.5 -18.667 -39.5 -26s-31.167 -13.166 -48.5 -17.499s-35 -6.5 -53 -6.5c-39.333 0 -73.833 6.16699 -103.5 18.5s-54.667 30 -75 53s-35.666 50.5 -45.999 82.5s-15.5 68 -15.5 108
c-49.333 1.33301 -85.333 13.666 -108 36.999s-34 52 -34 86c0 30.667 10.333 58 31 82c14.667 1.33301 29.167 -2.33398 43.5 -11.001s24.5 -18.334 30.5 -29.001c1.33301 -2 2.5 -4 3.5 -6s1.83301 -4 2.5 -6l-60 -57c2 -9.33301 6.16699 -17.166 12.5 -23.499
s13.833 -11.5 22.5 -15.5s18.167 -7 28.5 -9s20.166 -3.33301 29.499 -4c7.33301 70.667 30.166 124.667 68.499 162s90.166 56 155.499 56c23.333 0 46.333 -3.16699 69 -9.5s42.834 -16.666 60.501 -30.999s32 -33.666 43 -57.999s16.5 -54.5 16.5 -90.5
c0 -23.333 -2.33301 -47.666 -7 -72.999h-312c0 -28 3.5 -54.167 10.5 -78.5s17.5 -45.5 31.5 -63.5s31.667 -32.167 53 -42.5s46.666 -15.5 75.999 -15.5c10.667 0 22 0.833008 34 2.5s23.833 4.16699 35.5 7.5s22.167 7.16602 31.5 11.499s17 9.16602 23 14.499z
M364.001 468c-37.333 0 -66 -12.832 -86 -38.499s-32 -70.834 -36 -135.501h219c0.666992 6 1.16699 11.833 1.5 17.5s0.5 11.167 0.5 16.5c0 42.667 -8 76.667 -24 102s-41 38 -75 38z" />
    <glyph glyph-name="uni04BE" unicode="&#x4be;" horiz-adv-x="816" 
d="M436 -7c-10.667 1.33301 -20.999 3.50293 -30.999 6.50293s-20 6.16699 -30 9.5c-31.333 10 -59.833 24.5 -85.5 43.5s-47.667 42.333 -66 70s-32.833 59.5 -43.5 95.5s-16.334 76 -17.001 120c-27.333 0.666992 -51.166 5 -71.499 13s-37.333 18.833 -51 32.5
s-24 29.167 -31 46.5s-10.5 35.333 -10.5 54c0 14 2.5 30.167 7.5 48.5s13.5 34.166 25.5 47.499c15.333 0 32.333 -3.33301 51 -10s34.667 -14.334 48 -23.001l8 -16l-82 -79c7.33301 -21.333 21 -36.833 41 -46.5s42 -14.834 66 -15.501c4 52.667 15 99.167 33 139.5
s41.167 74 69.5 101s60.666 47.333 96.999 61s74.5 20.5 114.5 20.5c42.667 0 81.5 -6.16699 116.5 -18.5s65 -31 90 -56s44.333 -56.167 58 -93.5s20.5 -81 20.5 -131c0 -17.333 -0.5 -31.5 -1.5 -42.5s-2.5 -21.833 -4.5 -32.5h-495c0 -46.667 7 -87.667 21 -123
s33 -64.666 57 -87.999s51.5 -41 82.5 -53s63 -18.167 96 -18.5s66.167 4.66699 99.5 15s64 26.166 92 47.499l10 -21c-24 -34 -53.167 -59.667 -87.5 -77s-69.5 -27.666 -105.5 -30.999c-4 -30 -8.5 -59.833 -13.5 -89.5s-11.167 -59.834 -18.5 -90.501h-26
c-6.66699 31.333 -12.5 62.333 -17.5 93zM479.001 660.003c-31.333 0 -59.832 -6.16797 -85.499 -18.501s-47.834 -30 -66.501 -53s-33.667 -51.167 -45 -84.5s-18 -71.333 -20 -114h400c0.666992 7.33301 1.16699 14.333 1.5 21s0.5 13.334 0.5 20.001
c0 34 -4.66699 65 -14 93s-22.166 52 -38.499 72s-35.833 35.667 -58.5 47s-47.334 17 -74.001 17z" />
    <glyph glyph-name="uni04BF" unicode="&#x4bf;" horiz-adv-x="604" 
d="M548 70c-10 -20.667 -28.3291 -38.498 -54.9961 -53.498s-56 -24.167 -88 -27.5c-3.33301 -29.333 -7 -57.166 -11 -83.499s-9.66699 -54.833 -17 -85.5h-26c-6.66699 32 -12 61.333 -16 88l-13 85c-60 11.333 -104.833 39.666 -134.5 84.999
s-44.834 102.666 -45.501 171.999c-49.333 1.33301 -85.333 13.666 -108 36.999s-34 52 -34 86c0 30.667 10.333 58 31 82c14.667 1.33301 29.167 -2.33398 43.5 -11.001s24.5 -18.334 30.5 -29.001c1.33301 -2 2.5 -4 3.5 -6s1.83301 -4 2.5 -6l-60 -57
c2 -9.33301 6.16699 -17.166 12.5 -23.499s13.833 -11.5 22.5 -15.5s18.167 -7 28.5 -9s20.166 -3.33301 29.499 -4c7.33301 70.667 30.166 124.667 68.499 162s90.166 56 155.499 56c23.333 0 46.333 -3.16699 69 -9.5s42.834 -16.666 60.501 -30.999
s32 -33.666 43 -57.999s16.5 -54.5 16.5 -90.5c0 -23.333 -2.33301 -47.666 -7 -72.999h-312c0 -28 3.5 -54.167 10.5 -78.5s17.5 -45.5 31.5 -63.5s31.667 -32.167 53 -42.5s46.666 -15.5 75.999 -15.5c10.667 0 22 0.833008 34 2.5s23.833 4.16699 35.5 7.5
s22.167 7.16602 31.5 11.499s17 9.16602 23 14.499zM364.004 468.002c-37.333 0 -66 -12.832 -86 -38.499s-32 -70.834 -36 -135.501h219c0.666992 6 1.16699 11.667 1.5 17s0.5 10.666 0.5 15.999c0 42.667 -8 76.834 -24 102.501s-41 38.5 -75 38.5z" />
    <glyph glyph-name="uni04C0" unicode="&#x4c0;" horiz-adv-x="352" 
d="M304 0h-256.002v29c26 12 52.667 20 80 24v593c-13.333 2.66699 -26.666 6.16699 -39.999 10.5s-26.666 9.16602 -39.999 14.499v29h256v-29c-12 -5.33301 -25 -10.166 -39 -14.499s-27.667 -7.83301 -41 -10.5v-593c14 -2.66699 28 -6 42 -10s26.667 -8.66699 38 -14
v-29z" />
    <glyph glyph-name="uni04C3" unicode="&#x4c3;" horiz-adv-x="646" 
d="M503 1c0 24 -3.99805 48.166 -11.998 72.499s-18.5 47.666 -31.5 69.999s-27.833 43.666 -44.5 63.999s-33.667 38.833 -51 55.5s-34.166 31.167 -50.499 43.5s-30.5 21.833 -42.5 28.5h-64v-282c30.667 -5.33301 55.667 -13.333 75 -24v-29h-253v29
c26.667 10.667 54 18.667 82 24v593c-30 4 -57.333 12.333 -82 25v29h253v-29c-10.667 -4.66699 -22.334 -9.16699 -35.001 -13.5s-26 -8.16602 -40 -11.499v-277l60 14l186 263c-13.333 3.33301 -25.833 7 -37.5 11s-22.834 8.66699 -33.501 14v29h220v-29
c-13.333 -6 -26.333 -11 -39 -15s-25 -7.33301 -37 -10l-200 -265c29.333 -13.333 60 -32.666 92 -57.999s61.5 -54.333 88.5 -87s49.167 -68 66.5 -106s26 -76.333 26 -115c0 -38 -6 -70.667 -18 -98s-28.333 -50.166 -49 -68.499s-44.834 -32.333 -72.501 -42
s-57.5 -15.5 -89.5 -17.5l-6 27c18.667 4 36.5 10.167 53.5 18.5s31.833 19.833 44.5 34.5s22.667 32.667 30 54s11 47.333 11 78z" />
    <glyph glyph-name="uni04C4" unicode="&#x4c4;" horiz-adv-x="541" 
d="M418 -41c0 31.333 -6.32715 62.001 -18.9941 92.001s-28.334 57.5 -47.001 82.5s-38.667 46.667 -60 65s-40.333 31.166 -57 38.499h-40v-188c13.333 -3.33301 25.5 -6.83301 36.5 -10.5s20.5 -8.16699 28.5 -13.5v-25h-221v25c18 10.667 40 18.667 66 24v401
c-23.333 4.66699 -45.333 12.667 -66 24v26h205v-26c-6.66699 -4.66699 -13.834 -9 -21.501 -13s-16.834 -7.66699 -27.501 -11v-187l46 10l76 86c24 26.667 46.333 55.667 67 87l-31.5 13.5c-9.66699 4.33301 -18.834 9.16602 -27.501 14.499v26h193v-26
c-6.66699 -5.33301 -15.5 -10 -26.5 -14s-24.5 -8.66699 -40.5 -14l-72 -83c-25.333 -28 -52 -56 -80 -84c18.667 -8 40.167 -21.333 64.5 -40s47.166 -41.334 68.499 -68.001s39.333 -56.667 54 -90s22 -68.333 22 -105c0 -57.333 -15.333 -102.166 -46 -134.499
s-74.667 -50.166 -132 -53.499l-5 28c35.333 10.667 59.666 27.5 72.999 50.5s20 53.833 20 92.5z" />
    <glyph glyph-name="uni04C5" unicode="&#x4c5;" horiz-adv-x="656" 
d="M202 641c-41.333 6.66699 -75.335 16.6719 -102.002 30.0049v29h526v-29c-23.333 -12 -50.666 -20.333 -81.999 -25v-594h110l8 -9c-2.66699 -12.667 -7.66699 -27.334 -15 -44.001s-15.666 -33.834 -24.999 -51.501s-19.333 -35.167 -30 -52.5s-20.667 -32.333 -30 -45
h-27l29 150h-192v29c12 5.33301 24.333 9.83301 37 13.5s25.667 7.16699 39 10.5v595h-187c-2.66699 -104.667 -7.5 -191.5 -14.5 -260.5s-15.833 -126 -26.5 -171s-22.834 -80.833 -36.501 -107.5s-28.5 -50.334 -44.5 -71.001c-13.333 -17.333 -29.666 -30 -48.999 -38
s-38 -12 -56 -12c-4.66699 5.33301 -9.5 12.833 -14.5 22.5s-9.66699 20 -14 31s-7.83301 22 -10.5 33s-4.33398 20.833 -5.00098 29.5l15 25l115 -21c10 16.667 19.833 38.667 29.5 66s18.334 62.166 26.001 104.499s14 93.166 19 152.499s7.5 129.333 7.5 210z" />
    <glyph glyph-name="uni04C6" unicode="&#x4c6;" horiz-adv-x="546" 
d="M102 86c9.33301 16 17.6689 37.3359 25.002 64.0029s13.5 56 18.5 88s8.83301 65.5 11.5 100.5s4 68.833 4 101.5c-13.333 4 -25.5 9 -36.5 15s-21.167 12.333 -30.5 19v26h409v-26c-21.333 -12 -43.333 -20 -66 -24v-406h98l5 -8
c-3.33301 -16 -8.66602 -33.333 -15.999 -52s-15.5 -36.667 -24.5 -54s-18 -33 -27 -47s-16.5 -24.333 -22.5 -31h-27l27 148h-162v25c16 11.333 35.667 19.333 59 24v407h-132c-0.666992 -35.333 -2.66699 -72.833 -6 -112.5s-8.33301 -78.667 -15 -117
s-15.334 -74.333 -26.001 -108s-23.667 -61.834 -39 -84.501c-12.667 -19.333 -26.334 -32.833 -41.001 -40.5s-28.334 -10.167 -41.001 -7.5c-10 11.333 -19.5 26.166 -28.5 44.499s-14.167 35.166 -15.5 50.499l14 25z" />
    <glyph glyph-name="uni04C7" unicode="&#x4c7;" horiz-adv-x="728" 
d="M282 0l-253.001 0.00195312v29c26.667 10.667 54 18.667 82 24v593c-31.333 4.66699 -58.666 13 -81.999 25v29h253v-29c-11.333 -6 -23.333 -11 -36 -15s-25.667 -7.33301 -39 -10v-261h314v261c-14 3.33301 -27.167 7 -39.5 11s-24.166 8.66699 -35.499 14v29h253v-29
c-12 -6.66699 -25.167 -11.834 -39.5 -15.501s-28.5 -6.83398 -42.5 -9.50098v-646c0 -45.333 -4.33301 -81.833 -13 -109.5s-21.334 -49 -38.001 -64s-37 -25 -61 -30s-51.333 -7.5 -82 -7.5l-6 27c17.333 4 32.5 9.5 45.5 16.5s23.833 17.333 32.5 31
s15.167 31.5 19.5 53.5s6.5 49.667 6.5 83v333h-314v-280c13.333 -2.66699 26.333 -6 39 -10s24.667 -8.66699 36 -14v-29z" />
    <glyph glyph-name="uni04C8" unicode="&#x4c8;" horiz-adv-x="612" 
d="M254 0l-214.998 0.00390625v25c9.33301 5.33301 19.666 9.83301 30.999 13.5s23 7.16699 35 10.5v401c-12 3.33301 -23.667 6.83301 -35 10.5s-21.666 8.16699 -30.999 13.5v26h215v-26c-15.333 -9.33301 -35 -17.333 -59 -24v-175h222v175c-23.333 4 -43.333 12 -60 24
v26h216v-26c-18 -11.333 -40 -19.333 -66 -24v-450c0 -41.333 -4 -75.333 -12 -102s-19.5 -47.834 -34.5 -63.501s-33.5 -27 -55.5 -34s-47.333 -11.167 -76 -12.5l-5 28c18 5.33301 33 11.666 45 18.999s21.5 17.666 28.5 30.999s12 30.666 15 51.999s4.5 49 4.5 83v230
h-222v-182c13.333 -2.66699 24.666 -6 33.999 -10s17.666 -8.66699 24.999 -14v-25z" />
    <glyph glyph-name="uni04C9" unicode="&#x4c9;" horiz-adv-x="730" 
d="M282 0l-253.003 0.00390625v29c26.667 10.667 54 18.667 82 24v593c-31.333 4.66699 -58.666 13 -81.999 25v29h253v-29c-11.333 -6 -23.333 -11 -36 -15s-25.667 -7.33301 -39 -10v-261h314v261c-14 3.33301 -27.167 7 -39.5 11s-24.166 8.66699 -35.499 14v29h253v-29
c-12 -6.66699 -25.167 -11.834 -39.5 -15.501s-28.5 -6.83398 -42.5 -9.50098v-594h111l8 -9c-2.66699 -12.667 -7.66699 -27.334 -15 -44.001s-15.666 -33.834 -24.999 -51.501s-19.5 -35.167 -30.5 -52.5s-21.167 -32.333 -30.5 -45h-27l30 150h-192v29
c24 10.667 49 18.667 75 24v280h-314v-280c13.333 -2.66699 26.333 -6 39 -10s24.667 -8.66699 36 -14v-29z" />
    <glyph glyph-name="uni04CA" unicode="&#x4ca;" horiz-adv-x="615" 
d="M254 0h-214.999v25c9.33301 5.33301 19.666 9.83301 30.999 13.5s23 7.16699 35 10.5v401c-12 3.33301 -23.667 6.83301 -35 10.5s-21.666 8.16699 -30.999 13.5v26h215v-26c-15.333 -9.33301 -35 -17.333 -59 -24v-175h222v175c-23.333 4 -43.333 12 -60 24v26h216v-26
c-18 -11.333 -40 -19.333 -66 -24v-406h90l5 -8c-3.33301 -16 -8.66602 -33.333 -15.999 -52s-15.5 -36.667 -24.5 -54s-18 -33 -27 -47s-16.5 -24.333 -22.5 -31h-26l26 148h-155v25c16.667 12 36.667 20 60 24v182h-222v-182c13.333 -2.66699 24.666 -6 33.999 -10
s17.666 -8.66699 24.999 -14v-25z" />
    <glyph glyph-name="uni04CB" unicode="&#x4cb;" horiz-adv-x="636" 
d="M607 0h-184l-42 -151h-25c-2.66699 13.333 -5.16699 28.833 -7.5 46.5s-4.5 36 -6.5 55s-3.66699 37.333 -5 55s-2 33.167 -2 46.5h110v258c-18 -10 -41.833 -20 -71.5 -30s-63.5 -15 -101.5 -15c-28 0 -53.667 2.66699 -77 8s-43.5 15 -60.5 29s-30.167 33 -39.5 57
s-14 54.667 -14 92v195c-12 2 -24 5.16699 -36 9.5s-24 9.5 -36 15.5v29h234v-29c-9.33301 -4.66699 -19.333 -9.16699 -30 -13.5s-22.667 -8.16602 -36 -11.499v-176c0 -46.667 9.5 -83.834 28.5 -111.501s50.5 -41.5 94.5 -41.5c28 0 54.667 4 80 12s47 17.667 65 29v288
c-12 3.33301 -24 7.16602 -36 11.499s-23.667 8.83301 -35 13.5v29h233v-29c-9.33301 -4.66699 -19.5 -9.16699 -30.5 -13.5s-22.833 -8.16602 -35.5 -11.499v-593c13.333 -2.66699 25.5 -6 36.5 -10s20.833 -8.66699 29.5 -14v-29z" />
    <glyph glyph-name="uni04CC" unicode="&#x4cc;" horiz-adv-x="558" 
d="M15 500l215 0.000976562v-26c-6.66699 -4.66699 -15 -9.16699 -25 -13.5s-21.333 -7.83301 -34 -10.5v-120c0 -31.333 6.66699 -56.5 20 -75.5s35.666 -28.5 66.999 -28.5c18.667 0 36.834 2.83301 54.501 8.5s34.5 13.167 50.5 22.5v193c-20 4 -39.667 12 -59 24v26h215
v-26c-18 -11.333 -40 -19.333 -66 -24v-401c13.333 -3.33301 25.333 -6.83301 36 -10.5s20.667 -8.16699 30 -13.5v-25h-164l-45 -148h-26l-6 96c-2 32 -3.66699 64 -5 96h90v184c-16 -17.333 -35 -31.5 -57 -42.5s-49.667 -16.5 -83 -16.5
c-45.333 0 -80.333 12.667 -105 38s-37 59.666 -37 102.999v140c-25.333 4.66699 -47.333 12.667 -66 24v26z" />
    <glyph glyph-name="uni04CD" unicode="&#x4cd;" horiz-adv-x="870" 
d="M762 52l108.999 0.000976562l8 -7c-2.66699 -12.667 -7.5 -27.5 -14.5 -44.5s-15.333 -34.5 -25 -52.5s-19.834 -35.667 -30.501 -53s-20.667 -32.333 -30 -45h-27l29 150h-192v29c13.333 5.33301 26.666 9.83301 39.999 13.5s27 7.16699 41 10.5v450l4 117h-8l-33 -107
l-205 -513h-26l-195 513l-36 117h-9l1 -127v-450c12.667 -2.66699 25.334 -6 38.001 -10s25.334 -8.66699 38.001 -14v-29h-209v29c12.667 5.33301 25.834 10.166 39.501 14.499s27.5 7.83301 41.5 10.5v592c-14 2.66699 -27.833 6.16699 -41.5 10.5
s-27.167 9.16602 -40.5 14.499v29h205l174 -457l34 -103h1l34 105l180 455h181v-29c-12 -5.33301 -24.333 -10.166 -37 -14.499s-25.667 -7.83301 -39 -10.5v-594z" />
    <glyph glyph-name="uni04CE" unicode="&#x4ce;" horiz-adv-x="746" 
d="M207 0h-175.999v25c22 10.667 44 18.667 66 24l15 391c-14 5.33301 -26.333 11 -37 17l-29 17v26h195l102 -293l19 -69h3l21 70l108 292h189v-26c-8.66699 -5.33301 -18.334 -10 -29.001 -14s-23 -7.33301 -37 -10l22 -406h93l5 -8
c-3.33301 -16 -8.83301 -33.333 -16.5 -52s-16 -36.667 -25 -54s-18 -33 -27 -47s-16.167 -24.333 -21.5 -31h-27l27 148h-156v25c6.66699 3.33301 14.667 7 24 11s21.333 8.33301 36 13l-20 405h-8l-164 -454h-28l-161 454h-8l-15 -405c24 -7.33301 44 -15.333 60 -24v-25z
" />
    <glyph glyph-name="uni04CF" unicode="&#x4cf;" horiz-adv-x="304" 
d="M265 0h-226.002v25c9.33301 4.66699 20.5 9 33.5 13l36.5 11v601c-12.667 2.66699 -25.667 6 -39 10s-23.666 8.66699 -30.999 14v26h226v-26c-8 -5.33301 -17.667 -9.83301 -29 -13.5s-23.666 -7.16699 -36.999 -10.5v-601c11.333 -3.33301 22.333 -6.83301 33 -10.5
s21.667 -8.16699 33 -13.5v-25z" />
    </font>
</defs>
</svg>
